<svg enable-background="new 0 0 26.0000286 30.0000267" height="30.000027" viewBox="0 0 26.0000286 30.0000267" width="26.000029" xmlns="http://www.w3.org/2000/svg"><font horiz-adv-x="1000"><font-face underline-position="-100" underline-thickness="50"/><missing-glyph d="M35 42C35 14 50 0 77 0l417 0C521 0 535 14 535 42l0 616C535 686 521 700 494 700l-417 0C50 700 35 686 35 658M285 395l-170 255 340 0M315 350l170 255 0-510M85 95l0 510 170-255M115 50l170 255 170-255z" horiz-adv-x="571"/><glyph d="M16 48C6 19 19 0 50 0l46 0C120 0 136 11 143 35l49 147 249 0 50-148C498 11 514 0 538 0l46 0C615 0 628 19 618 48l-222 628C389 699 373 710 349 710l-64 0C261 710 246 699 238 676M224 287l64 190C300 517 316 587 316 587l2 0C318 587 334 517 346 477l63-190z" horiz-adv-x="634" unicode="&#x41;"/><glyph d="M10 48C-3 20 11 0 41 0l48 0C112 0 127 10 136 32l107 272 169 0 0-262C412 14 427 0 454 0l357 0C838 0 852 14 852 42l0 28C852 97 838 111 811 111l-270 0 0 191 198 0C766 302 780 316 780 344l0 28C780 399 766 413 739 413l-198 0 0 186 255 0C823 599 837 613 837 640l0 28C837 695 823 710 796 710l-477 0C295 710 279 700 271 678M284 409l76 190 52 0 0-190z" horiz-adv-x="887" unicode="&#xC6;"/><glyph d="M16 48C6 19 19 0 50 0l46 0C120 0 136 11 143 35l49 147 249 0 50-148C498 11 514 0 538 0l46 0C615 0 628 19 618 48l-222 628C389 699 373 710 349 710l-64 0C261 710 246 699 238 676M224 287l64 190C300 517 316 587 316 587l2 0C318 587 334 517 346 477l63-190M312 757l21 0C355 757 370 765 384 782l45 61C451 870 443 893 407 893l-36 0C349 893 334 885 322 864l-35-60C272 778 283 757 312 757z" horiz-adv-x="634" unicode="&#xC1;"/><glyph d="M16 48C6 19 19 0 50 0l46 0C120 0 136 11 143 35l49 147 249 0 50-148C498 11 514 0 538 0l46 0C615 0 628 19 618 48l-222 628C389 699 373 710 349 710l-64 0C261 710 246 699 238 676M224 287l64 190C300 517 316 587 316 587l2 0C318 587 334 517 346 477l63-190M317 753C389 753 464 798 464 868 464 884 454 893 428 893l-19 0C384 893 377 878 373 865 366 833 343 822 317 822 289 822 267 833 260 865 257 879 249 893 224 893l-19 0C180 893 170 883 170 868 170 799 246 753 317 753z" horiz-adv-x="634" unicode="&#x102;"/><glyph d="M16 48C6 19 19 0 50 0l46 0C120 0 136 11 143 35l49 147 249 0 50-148C498 11 514 0 538 0l46 0C615 0 628 19 618 48l-222 628C389 699 373 710 349 710l-64 0C261 710 246 699 238 676M224 287l64 190C300 517 316 587 316 587l2 0C318 587 334 517 346 477l63-190M213 757l26 0C262 757 271 766 282 786l34 52 2 0 33-52C363 766 371 757 395 757l26 0C450 757 458 779 439 808l-40 58C386 885 371 893 348 893l-62 0C263 893 248 885 235 866l-40-58C176 779 184 757 213 757z" horiz-adv-x="634" unicode="&#xC2;"/><glyph d="M16 48C6 19 19 0 50 0l46 0C120 0 136 11 143 35l49 147 249 0 50-148C498 11 514 0 538 0l46 0C615 0 628 19 618 48l-222 628C389 699 373 710 349 710l-64 0C261 710 246 699 238 676M224 287l64 190C300 517 316 587 316 587l2 0C318 587 334 517 346 477l63-190M401 777l15 0C443 777 457 791 457 819l0 33C457 879 443 893 416 893l-15 0C374 893 360 879 360 852l0-33C360 791 374 777 401 777M218 777l14 0C259 777 274 791 274 819l0 33C274 879 259 893 232 893l-14 0C190 893 176 879 176 852l0-33C176 791 190 777 218 777z" horiz-adv-x="634" unicode="&#xC4;"/><glyph d="M16 48C6 19 19 0 50 0l46 0C120 0 136 11 143 35l49 147 249 0 50-148C498 11 514 0 538 0l46 0C615 0 628 19 618 48l-222 628C389 699 373 710 349 710l-64 0C261 710 246 699 238 676M224 287l64 190C300 517 316 587 316 587l2 0C318 587 334 517 346 477l63-190M300 757l26 0C355 757 359 780 346 803l-35 61C299 885 284 893 262 893l-37 0C190 893 182 870 204 843l45-61C263 765 278 757 300 757z" horiz-adv-x="634" unicode="&#xC0;"/><glyph d="M16 48C6 19 19 0 50 0l46 0C120 0 136 11 143 35l49 147 249 0 50-148C498 11 514 0 538 0l46 0C615 0 628 19 618 48l-222 628C389 699 373 710 349 710l-64 0C261 710 246 699 238 676M224 287l64 190C300 517 316 587 316 587l2 0C318 587 334 517 346 477l63-190M227 783l179 0C433 783 448 796 448 823l0 7C448 858 433 870 406 870l-179 0C200 870 186 858 186 830l0-7C186 796 200 783 227 783z" horiz-adv-x="634" unicode="&#x100;"/><glyph d="M16 48C6 19 19 0 50 0l46 0C120 0 136 11 143 35l49 147 249 0 48-143C498 6 528 4 528 4 502-19 462-61 462-108 462-170 527-197 570-203 589-205 606-196 608-175l3 21C614-134 610-121 596-115 581-109 562-101 562-80 562-52 591-32 613-13 627 0 628 20 618 48l-222 628C388 699 373 710 349 710l-64 0C261 710 246 699 238 676M224 287l64 190C300 517 316 587 316 587l2 0C318 587 334 517 346 477l63-190z" horiz-adv-x="634" unicode="&#x104;"/><glyph d="M16 48C6 19 19 0 50 0l46 0C120 0 136 11 143 35l49 147 249 0 50-148C498 11 514 0 538 0l46 0C615 0 628 19 618 48l-222 628C389 699 373 710 349 710l-64 0C261 710 246 699 238 676M224 287l64 190C300 517 316 587 316 587l2 0C318 587 334 517 346 477l63-190M317 745C364 745 411 772 411 823 411 875 364 902 317 902 269 902 222 875 222 823 222 772 269 745 317 745M317 789C296 789 283 803 283 823 283 844 297 858 317 858 337 858 351 844 351 823 351 803 337 789 317 789z" horiz-adv-x="634" unicode="&#xC5;"/><glyph d="M16 48C6 19 19 0 50 0l46 0C120 0 136 11 143 35l49 147 249 0 50-148C498 11 514 0 538 0l46 0C615 0 628 19 618 48l-222 628C389 699 373 710 349 710l-64 0C261 710 246 699 238 676M224 287l64 190C300 517 316 587 316 587l2 0C318 587 334 517 346 477l63-190M175 758l10 0C205 758 217 766 219 780 221 802 234 820 257 820 299 820 318 755 394 755 454 755 495 797 495 858 495 882 483 892 458 892l-10 0C427 892 413 883 412 869 410 846 399 830 377 830 335 830 315 895 240 895 180 895 139 850 139 796 139 771 152 758 175 758z" horiz-adv-x="634" unicode="&#xC3;"/><glyph d="M82 42C82 14 96 0 123 0l215 0C470 0 583 64 583 206 583 278 546 350 469 373l0 2C523 404 555 461 555 527 555 644 463 710 335 710l-212 0C96 710 82 695 82 668M210 420l0 179 123 0C393 599 423 562 423 511 423 460 392 420 336 420M210 111l0 205 138 0C413 316 451 273 451 214 451 154 414 111 348 111z" horiz-adv-x="624" unicode="&#x42;"/><glyph d="M40 358C40 149 184-12 407-12 533-12 618 44 658 76 678 93 679 114 664 134l-20 27C628 184 608 184 586 168 553 144 492 106 412 106 259 106 173 227 173 360 173 491 256 604 411 604 484 604 540 574 571 554 595 539 614 541 628 564l18 29C660 615 659 635 638 651 600 678 522 722 406 722 191 722 40 564 40 358z" horiz-adv-x="704" unicode="&#x43;"/><glyph d="M392 757l21 0C435 757 450 765 464 782l45 61C531 870 523 893 487 893l-36 0C429 893 414 885 402 864l-35-60C352 778 363 757 392 757M40 358C40 149 184-12 407-12 533-12 618 44 658 76 678 93 679 114 664 134l-20 27C628 184 608 184 586 168 553 144 492 106 412 106 259 106 173 227 173 360 173 491 256 604 411 604 484 604 540 574 571 554 595 539 614 541 628 564l18 29C660 615 659 635 638 651 600 678 522 722 406 722 191 722 40 564 40 358z" horiz-adv-x="704" unicode="&#x106;"/><glyph d="M366 757l62 0C451 757 466 765 479 784l40 59C538 871 530 893 501 893l-26 0C451 893 443 885 431 865l-33-53-2 0-34 53C351 885 342 893 319 893l-26 0C264 893 256 871 275 843l40-59C328 765 343 757 366 757M40 358C40 149 184-12 407-12 533-12 618 44 658 76 678 93 679 114 664 134l-20 27C628 184 608 184 586 168 553 144 492 106 412 106 259 106 173 227 173 360 173 491 256 604 411 604 484 604 540 574 571 554 595 539 614 541 628 564l18 29C660 615 659 635 638 651 600 678 522 722 406 722 191 722 40 564 40 358z" horiz-adv-x="704" unicode="&#x10C;"/><glyph d="M350-53C345-72 351-83 365-84 391-87 410-94 410-113 410-133 394-142 373-142 364-142 357-139 348-139 337-139 327-152 327-174 327-205 362-208 384-208 438-208 492-186 492-120 492-73 460-49 419-44l7 33C542-6 621 45 659 76 679 93 680 114 665 134l-20 27C629 184 609 184 587 168 554 144 493 106 413 106 260 106 174 227 174 360 174 491 257 604 412 604 485 604 541 574 572 554 596 539 615 541 629 564l18 29C661 615 660 635 639 651 601 678 523 722 407 722 192 722 41 564 41 358 41 163 165 10 362-10z" horiz-adv-x="706" unicode="&#xC7;"/><glyph d="M293 757l26 0C342 757 351 766 362 786l34 52 2 0 33-52C443 766 451 757 475 757l26 0C530 757 538 779 519 808l-40 58C466 885 451 893 428 893l-62 0C343 893 328 885 315 866l-40-58C256 779 264 757 293 757M40 358C40 149 184-12 407-12 533-12 618 44 658 76 678 93 679 114 664 134l-20 27C628 184 608 184 586 168 553 144 492 106 412 106 259 106 173 227 173 360 173 491 256 604 411 604 484 604 540 574 571 554 595 539 614 541 628 564l18 29C660 615 659 635 638 651 600 678 522 722 406 722 191 722 40 564 40 358z" horiz-adv-x="704" unicode="&#x108;"/><glyph d="M40 358C40 149 184-12 407-12 533-12 618 44 658 76 678 93 679 114 664 134l-20 27C628 184 608 184 586 168 553 144 492 106 412 106 259 106 173 227 173 360 173 491 256 604 411 604 484 604 540 574 571 554 595 539 614 541 628 564l18 29C660 615 659 635 638 651 600 678 522 722 406 722 191 722 40 564 40 358M384 782l26 0C437 782 451 797 451 824l0 28C451 879 437 893 410 893l-26 0C357 893 343 879 343 852l0-28C343 797 357 782 384 782z" horiz-adv-x="704" unicode="&#x10A;"/><glyph d="M82 42C82 14 96 0 123 0l201 0C543 0 686 132 686 356 686 580 543 710 324 710l-201 0C96 710 82 695 82 668M210 111l0 488 107 0C459 599 553 514 553 356 553 196 461 111 317 111z" horiz-adv-x="728" unicode="&#x44;"/><glyph d="M306 757l62 0C391 757 406 765 419 784l40 59C478 871 470 893 441 893l-26 0C391 893 383 885 371 865l-33-53-2 0-34 53C291 885 282 893 259 893l-26 0C204 893 196 871 215 843l40-59C268 765 283 757 306 757M82 42C82 14 96 0 123 0l201 0C543 0 686 132 686 356 686 580 543 710 324 710l-201 0C96 710 82 695 82 668M210 111l0 488 107 0C459 599 553 514 553 356 553 196 461 111 317 111z" horiz-adv-x="728" unicode="&#x10E;"/><glyph d="M83 42C83 14 97 0 125 0l200 0C544 0 687 132 687 356 687 580 544 710 325 710l-200 0C97 710 83 695 83 668l0-262-33 0C34 406 25 392 25 364l0-21C25 316 39 301 67 301l16 0M211 111l0 190 93 0C330 301 343 316 343 343l0 21C343 392 329 406 302 406l-91 0 0 193 107 0C460 599 554 514 554 356 554 196 462 111 318 111z" horiz-adv-x="729" unicode="&#x110;"/><glyph d="M82 42C82 14 96 0 123 0l358 0C508 0 523 14 523 42l0 28C523 97 508 111 481 111l-271 0 0 191 198 0C435 302 450 316 450 344l0 28C450 399 435 413 408 413l-198 0 0 186 255 0C492 599 507 613 507 640l0 28C507 695 492 710 465 710l-342 0C96 710 82 695 82 668z" horiz-adv-x="557" unicode="&#x45;"/><glyph d="M298 757l21 0C341 757 356 765 370 782l45 61C437 870 429 893 393 893l-36 0C335 893 320 885 308 864l-35-60C258 778 269 757 298 757M82 42C82 14 96 0 123 0l358 0C508 0 523 14 523 42l0 28C523 97 508 111 481 111l-271 0 0 191 198 0C435 302 450 316 450 344l0 28C450 399 435 413 408 413l-198 0 0 186 255 0C492 599 507 613 507 640l0 28C507 695 492 710 465 710l-342 0C96 710 82 695 82 668z" horiz-adv-x="557" unicode="&#xC9;"/><glyph d="M82 42C82 14 96 0 123 0l358 0C508 0 523 14 523 42l0 28C523 97 508 111 481 111l-271 0 0 191 198 0C435 302 450 316 450 344l0 28C450 399 435 413 408 413l-198 0 0 186 255 0C492 599 507 613 507 640l0 28C507 695 492 710 465 710l-342 0C96 710 82 695 82 668M304 753C376 753 451 798 451 868 451 884 441 893 415 893l-19 0C371 893 364 878 360 865 353 833 330 822 304 822 276 822 254 833 247 865 244 879 236 893 211 893l-19 0C167 893 157 883 157 868 157 799 233 753 304 753z" horiz-adv-x="557" unicode="&#x114;"/><glyph d="M272 757l62 0C357 757 372 765 385 784l40 59C444 871 436 893 407 893l-26 0C357 893 349 885 337 865l-33-53-2 0-34 53C257 885 248 893 225 893l-26 0C170 893 162 871 181 843l40-59C234 765 249 757 272 757M82 42C82 14 96 0 123 0l358 0C508 0 523 14 523 42l0 28C523 97 508 111 481 111l-271 0 0 191 198 0C435 302 450 316 450 344l0 28C450 399 435 413 408 413l-198 0 0 186 255 0C492 599 507 613 507 640l0 28C507 695 492 710 465 710l-342 0C96 710 82 695 82 668z" horiz-adv-x="557" unicode="&#x11A;"/><glyph d="M199 757l26 0C248 757 257 766 268 786l34 52 2 0 33-52C349 766 357 757 381 757l26 0C436 757 444 779 425 808l-40 58C372 885 357 893 334 893l-62 0C249 893 234 885 221 866l-40-58C162 779 170 757 199 757M82 42C82 14 96 0 123 0l358 0C508 0 523 14 523 42l0 28C523 97 508 111 481 111l-271 0 0 191 198 0C435 302 450 316 450 344l0 28C450 399 435 413 408 413l-198 0 0 186 255 0C492 599 507 613 507 640l0 28C507 695 492 710 465 710l-342 0C96 710 82 695 82 668z" horiz-adv-x="557" unicode="&#xCA;"/><glyph d="M388 777l15 0C430 777 444 791 444 819l0 33C444 879 430 893 403 893l-15 0C361 893 347 879 347 852l0-33C347 791 361 777 388 777M205 777l14 0C246 777 261 791 261 819l0 33C261 879 246 893 219 893l-14 0C177 893 163 879 163 852l0-33C163 791 177 777 205 777M82 42C82 14 96 0 123 0l358 0C508 0 523 14 523 42l0 28C523 97 508 111 481 111l-271 0 0 191 198 0C435 302 450 316 450 344l0 28C450 399 435 413 408 413l-198 0 0 186 255 0C492 599 507 613 507 640l0 28C507 695 492 710 465 710l-342 0C96 710 82 695 82 668z" horiz-adv-x="557" unicode="&#xCB;"/><glyph d="M82 42C82 14 96 0 123 0l358 0C508 0 523 14 523 42l0 28C523 97 508 111 481 111l-271 0 0 191 198 0C435 302 450 316 450 344l0 28C450 399 435 413 408 413l-198 0 0 186 255 0C492 599 507 613 507 640l0 28C507 695 492 710 465 710l-342 0C96 710 82 695 82 668M291 782l26 0C344 782 358 797 358 824l0 28C358 879 344 893 317 893l-26 0C264 893 250 879 250 852l0-28C250 797 264 782 291 782z" horiz-adv-x="557" unicode="&#x116;"/><glyph d="M82 42C82 14 96 0 123 0l358 0C508 0 523 14 523 42l0 28C523 97 508 111 481 111l-271 0 0 191 198 0C435 302 450 316 450 344l0 28C450 399 435 413 408 413l-198 0 0 186 255 0C492 599 507 613 507 640l0 28C507 695 492 710 465 710l-342 0C96 710 82 695 82 668M287 757l26 0C342 757 346 780 333 803l-35 61C286 885 271 893 249 893l-37 0C177 893 169 870 191 843l45-61C250 765 265 757 287 757z" horiz-adv-x="557" unicode="&#xC8;"/><glyph d="M82 42C82 14 96 0 123 0l358 0C508 0 523 14 523 42l0 28C523 97 508 111 481 111l-271 0 0 191 198 0C435 302 450 316 450 344l0 28C450 399 435 413 408 413l-198 0 0 186 255 0C492 599 507 613 507 640l0 28C507 695 492 710 465 710l-342 0C96 710 82 695 82 668M214 783l179 0C420 783 435 796 435 823l0 7C435 858 420 870 393 870l-179 0C187 870 173 858 173 830l0-7C173 796 187 783 214 783z" horiz-adv-x="557" unicode="&#x112;"/><glyph d="M82 42C82 14 96 0 123 0l46 0C196 0 210 14 210 42l0 367C210 451 203 519 203 519l2 0C205 519 237 451 264 409l273-408C537-67 497-92 451-96 424-99 409-111 409-138l0-27C409-193 424-207 454-207 533-204 662-164 662-7l0 675C662 695 647 710 620 710l-45 0C548 710 533 695 533 668l0-368C533 258 540 190 540 190l-2 0C538 190 506 258 479 300l-252 382C216 702 201 710 177 710l-54 0C96 710 82 695 82 668z" horiz-adv-x="744" unicode="&#x14A;"/><glyph d="M82 42C82 14 96 0 123 0l286 0C382-26 352-65 352-108 352-170 418-197 460-203 479-205 496-196 499-175l3 21C505-134 501-121 486-115 471-109 452-101 452-80 452-25 523-5 523 41l0 29C523 97 508 111 481 111l-271 0 0 191 198 0C435 302 450 316 450 344l0 28C450 399 435 413 408 413l-198 0 0 186 255 0C492 599 507 613 507 640l0 28C507 695 492 710 465 710l-342 0C96 710 82 695 82 668z" horiz-adv-x="557" unicode="&#x118;"/><glyph d="M83 42C83 14 97 0 125 0l200 0C544 0 687 132 687 356 687 580 544 710 325 710l-200 0C97 710 83 695 83 668l0-262-33 0C34 406 25 392 25 364l0-21C25 316 39 301 67 301l16 0M211 111l0 190 93 0C330 301 343 316 343 343l0 21C343 392 329 406 302 406l-91 0 0 193 107 0C460 599 554 514 554 356 554 196 462 111 318 111z" horiz-adv-x="729" unicode="&#xD0;"/><glyph d="M75 250l31 0C147 95 276-12 448-12 479-12 507-8 526-4 553 1 563 20 558 45l-8 38C546 109 528 118 502 114 488 112 470 110 450 110 357 110 281 165 249 250l169 0C447 250 458 260 464 287 469 312 457 326 425 326l-199 0C223 346 223 369 226 388l219 0C474 388 486 399 491 426 496 452 485 465 452 465l-208 0C275 549 349 602 445 602 462 602 480 600 492 598 513 595 527 605 534 630l10 37C551 694 540 713 512 717 495 719 472 722 448 722 283 722 149 615 106 465l-30 0C47 465 37 452 37 427 37 402 48 388 76 388l16 0C90 368 90 342 93 326l-18 0C46 326 37 313 37 288 37 263 46 250 75 250z" horiz-adv-x="603" unicode="&#x20AC;"/><glyph d="M82 42C82 14 96 0 123 0l46 0C196 0 210 14 210 42l0 245 194 0C431 287 446 302 446 329l0 28C446 384 431 398 404 398l-194 0 0 201 238 0C475 599 490 613 490 640l0 28C490 695 475 710 448 710l-325 0C96 710 82 695 82 668z" horiz-adv-x="512" unicode="&#x46;"/><glyph d="M40 352C40 135 201-12 389-12 526-12 597 68 597 68l2 0C599 68 598 60 598 51l0-17C598 14 612 0 639 0l25 0C691 0 705 14 705 42l0 290C705 360 691 374 664 374l-142 0C495 374 480 360 480 332l0-27C480 278 495 263 522 263l68 0 0-79C590 184 529 106 410 106 278 106 173 209 173 358 173 492 259 604 414 604 490 604 541 578 572 560 597 546 615 548 630 571l18 28C663 622 661 640 639 657 609 678 524 722 407 722 195 722 40 564 40 352z" horiz-adv-x="754" unicode="&#x47;"/><glyph d="M40 352C40 135 201-12 389-12 526-12 597 68 597 68l2 0C599 68 598 60 598 51l0-17C598 14 612 0 639 0l25 0C691 0 705 14 705 42l0 290C705 360 691 374 664 374l-142 0C495 374 480 360 480 332l0-27C480 278 495 263 522 263l68 0 0-79C590 184 529 106 410 106 278 106 173 209 173 358 173 492 259 604 414 604 490 604 541 578 572 560 597 546 615 548 630 571l18 28C663 622 661 640 639 657 609 678 524 722 407 722 195 722 40 564 40 352M396 753C468 753 543 798 543 868 543 884 533 893 507 893l-19 0C463 893 456 878 452 865 445 833 422 822 396 822 368 822 346 833 339 865 336 879 328 893 303 893l-19 0C259 893 249 883 249 868 249 799 325 753 396 753z" horiz-adv-x="754" unicode="&#x11E;"/><glyph d="M292 757l26 0C341 757 350 766 361 786l34 52 2 0 33-52C442 766 450 757 474 757l26 0C529 757 537 779 518 808l-40 58C465 885 450 893 427 893l-62 0C342 893 327 885 314 866l-40-58C255 779 263 757 292 757M40 352C40 135 201-12 389-12 526-12 597 68 597 68l2 0C599 68 598 60 598 51l0-17C598 14 612 0 639 0l25 0C691 0 705 14 705 42l0 290C705 360 691 374 664 374l-142 0C495 374 480 360 480 332l0-27C480 278 495 263 522 263l68 0 0-79C590 184 529 106 410 106 278 106 173 209 173 358 173 492 259 604 414 604 490 604 541 578 572 560 597 546 615 548 630 571l18 28C663 622 661 640 639 657 609 678 524 722 407 722 195 722 40 564 40 352z" horiz-adv-x="754" unicode="&#x11C;"/><glyph d="M339-81C339-99 344-108 344-130 344-165 333-178 333-196 333-211 346-219 370-219l11 0C415-219 444-171 444-116 444-86 435-55 396-55l-20 0C353-55 339-61 339-81M40 352C40 135 201-12 389-12 526-12 597 68 597 68l2 0C599 68 598 60 598 51l0-17C598 14 612 0 639 0l25 0C691 0 705 14 705 42l0 290C705 360 691 374 664 374l-142 0C495 374 480 360 480 332l0-27C480 278 495 263 522 263l68 0 0-79C590 184 529 106 410 106 278 106 173 209 173 358 173 492 259 604 414 604 490 604 541 578 572 560 597 546 615 548 630 571l18 28C663 622 661 640 639 657 609 678 524 722 407 722 195 722 40 564 40 352z" horiz-adv-x="754" unicode="&#x122;"/><glyph d="M40 352C40 135 201-12 389-12 526-12 597 68 597 68l2 0C599 68 598 60 598 51l0-17C598 14 612 0 639 0l25 0C691 0 705 14 705 42l0 290C705 360 691 374 664 374l-142 0C495 374 480 360 480 332l0-27C480 278 495 263 522 263l68 0 0-79C590 184 529 106 410 106 278 106 173 209 173 358 173 492 259 604 414 604 490 604 541 578 572 560 597 546 615 548 630 571l18 28C663 622 661 640 639 657 609 678 524 722 407 722 195 722 40 564 40 352M383 782l26 0C436 782 450 797 450 824l0 28C450 879 436 893 409 893l-26 0C356 893 342 879 342 852l0-28C342 797 356 782 383 782z" horiz-adv-x="754" unicode="&#x120;"/><glyph d="M82 42C82 14 96 0 123 0l46 0C196 0 210 14 210 42l0 256 325 0 0-256C535 14 549 0 577 0l45 0C649 0 663 14 663 42l0 626C663 695 649 710 622 710l-45 0C549 710 535 695 535 668l0-259-325 0 0 259C210 695 196 710 169 710l-46 0C96 710 82 695 82 668z" horiz-adv-x="745" unicode="&#x48;"/><glyph d="M84 42C84 14 99 0 126 0l48 0C201 0 215 14 215 42l0 256 314 0 0-256C529 14 543 0 570 0l48 0C645 0 660 14 660 42l0 473 23 0C710 515 725 527 725 554l0 6C725 586 710 598 683 598l-23 0 0 77C660 697 645 710 618 710l-48 0C543 710 529 695 529 668l0-70-314 0 0 77C215 697 201 710 174 710l-48 0C99 710 84 695 84 668l0-70-24 0C33 598 19 586 19 560l0-6C19 527 33 515 60 515l24 0M215 409l0 106 314 0 0-106z" horiz-adv-x="743" unicode="&#x126;"/><glyph d="M268 757l26 0C317 757 326 766 337 786l34 52 2 0 33-52C418 766 426 757 450 757l26 0C505 757 513 779 494 808l-40 58C441 885 426 893 403 893l-62 0C318 893 303 885 290 866l-40-58C231 779 239 757 268 757M82 42C82 14 96 0 123 0l46 0C196 0 210 14 210 42l0 256 325 0 0-256C535 14 549 0 577 0l45 0C649 0 663 14 663 42l0 626C663 695 649 710 622 710l-45 0C549 710 535 695 535 668l0-259-325 0 0 259C210 695 196 710 169 710l-46 0C96 710 82 695 82 668z" horiz-adv-x="745" unicode="&#x124;"/><glyph d="M82 42C82 14 96 0 123 0l46 0C196 0 210 14 210 42l0 626C210 695 196 710 169 710l-46 0C96 710 82 695 82 668z" horiz-adv-x="292" unicode="&#x49;"/><glyph d="M293 38C293 11 308-2 335-2 420-2 553 55 553 244l0 424C553 695 539 710 511 710l-47 0C436 710 422 695 422 668l0-416C422 160 375 129 330 119 306 111 293 101 293 75M82 42C82 14 96 0 123 0l46 0C196 0 210 14 210 42l0 626C210 695 196 710 169 710l-46 0C96 710 82 695 82 668z" horiz-adv-x="627" unicode="&#x132;"/><glyph d="M82 42C82 14 96 0 123 0l46 0C196 0 210 14 210 42l0 626C210 695 196 710 169 710l-46 0C96 710 82 695 82 668M142 757l21 0C185 757 200 765 214 782l45 61C281 870 273 893 237 893l-36 0C179 893 164 885 152 864l-35-60C102 778 113 757 142 757z" horiz-adv-x="292" unicode="&#xCD;"/><glyph d="M82 42C82 14 96 0 123 0l46 0C196 0 210 14 210 42l0 626C210 695 196 710 169 710l-46 0C96 710 82 695 82 668M147 753C219 753 294 798 294 868 294 884 284 893 258 893l-19 0C214 893 207 878 203 865 196 833 173 822 147 822 119 822 97 833 90 865 87 879 79 893 54 893l-19 0C10 893 0 883 0 868 0 799 76 753 147 753z" horiz-adv-x="292" unicode="&#x12C;"/><glyph d="M82 42C82 14 96 0 123 0l46 0C196 0 210 14 210 42l0 626C210 695 196 710 169 710l-46 0C96 710 82 695 82 668M43 757l26 0C92 757 101 766 112 786l34 52 2 0 33-52C193 766 201 757 225 757l26 0C280 757 288 779 269 808l-40 58C216 885 201 893 178 893l-62 0C93 893 78 885 65 866l-40-58C6 779 14 757 43 757z" horiz-adv-x="292" unicode="&#xCE;"/><glyph d="M82 42C82 14 96 0 123 0l46 0C196 0 210 14 210 42l0 626C210 695 196 710 169 710l-46 0C96 710 82 695 82 668M232 777l15 0C274 777 288 791 288 819l0 33C288 879 274 893 247 893l-15 0C205 893 191 879 191 852l0-33C191 791 205 777 232 777M49 777l14 0C90 777 105 791 105 819l0 33C105 879 90 893 63 893l-14 0C21 893 7 879 7 852l0-33C7 791 21 777 49 777z" horiz-adv-x="292" unicode="&#xCF;"/><glyph d="M82 42C82 14 96 0 123 0l46 0C196 0 210 14 210 42l0 626C210 695 196 710 169 710l-46 0C96 710 82 695 82 668M134 782l26 0C187 782 201 797 201 824l0 28C201 879 187 893 160 893l-26 0C107 893 93 879 93 852l0-28C93 797 107 782 134 782z" horiz-adv-x="292" unicode="&#x130;"/><glyph d="M82 42C82 14 96 0 123 0l46 0C196 0 210 14 210 42l0 626C210 695 196 710 169 710l-46 0C96 710 82 695 82 668M131 757l26 0C186 757 190 780 177 803l-35 61C130 885 115 893 93 893l-37 0C21 893 13 870 35 843l45-61C94 765 109 757 131 757z" horiz-adv-x="292" unicode="&#xCC;"/><glyph d="M82 42C82 14 96 0 123 0l46 0C196 0 210 14 210 42l0 626C210 695 196 710 169 710l-46 0C96 710 82 695 82 668M58 783l179 0C264 783 279 796 279 823l0 7C279 858 264 870 237 870l-179 0C31 870 17 858 17 830l0-7C17 796 31 783 58 783z" horiz-adv-x="292" unicode="&#x12A;"/><glyph d="M82 42C82 22 89 9 105 4 78-20 41-63 41-108 41-170 107-197 149-203 168-205 185-196 188-175l3 21C194-134 190-121 175-115 160-109 141-101 141-80 141-25 210-3 210 42l0 626C210 695 196 710 169 710l-46 0C96 710 82 695 82 668z" horiz-adv-x="292" unicode="&#x12E;"/><glyph d="M82 42C82 14 96 0 123 0l46 0C196 0 210 14 210 42l0 626C210 695 196 710 169 710l-46 0C96 710 82 695 82 668M6 758l10 0C36 758 48 766 50 780 52 802 65 820 88 820 130 820 149 755 225 755 285 755 326 797 326 858 326 882 314 892 289 892l-10 0C258 892 244 883 243 869 241 846 230 830 208 830 166 830 146 895 71 895 11 895-30 850-30 796-30 771-17 758 6 758z" horiz-adv-x="292" unicode="&#x128;"/><glyph d="M19 210C19 58 130-12 240-12 349-12 461 55 461 210l0 458C461 695 446 710 419 710l-228 0C163 710 149 695 149 668l0-28C149 613 163 599 191 599l141 0 0-387C332 136 289 106 240 106 177 106 151 154 147 211 144 240 134 251 107 251l-47 0C33 251 19 237 19 210z" horiz-adv-x="535" unicode="&#x4a;"/><glyph d="M198 757l26 0C247 757 256 766 267 786l34 52 2 0 33-52C348 766 356 757 380 757l26 0C435 757 443 779 424 808l-40 58C371 885 356 893 333 893l-62 0C248 893 233 885 220 866l-40-58C161 779 169 757 198 757M19 210C19 58 130-12 240-12 349-12 461 55 461 210l0 458C461 695 446 710 419 710l-228 0C163 710 149 695 149 668l0-28C149 613 163 599 191 599l141 0 0-387C332 136 289 106 240 106 177 106 151 154 147 211 144 240 134 251 107 251l-47 0C33 251 19 237 19 210z" horiz-adv-x="536" unicode="&#x134;"/><glyph d="M82 42C82 14 96 0 123 0l46 0C196 0 210 14 210 42l0 268 93 0 157-281C471 9 486 0 509 0l55 0C597 0 610 21 593 50l-185 320 0 2 172 288C596 688 584 710 551 710l-49 0C479 710 464 701 453 681l-150-260-93 0 0 247C210 695 196 710 169 710l-46 0C96 710 82 695 82 668z" horiz-adv-x="628" unicode="&#x4b;"/><glyph d="M273-81C273-99 278-108 278-130 278-165 267-178 267-196 267-211 280-219 304-219l11 0C349-219 378-171 378-116 378-86 369-55 330-55l-20 0C287-55 273-61 273-81M82 42C82 14 96 0 123 0l46 0C196 0 210 14 210 42l0 268 93 0 157-281C471 9 486 0 509 0l55 0C597 0 610 21 593 50l-185 320 0 2 172 288C596 688 584 710 551 710l-49 0C479 710 464 701 453 681l-150-260-93 0 0 247C210 695 196 710 169 710l-46 0C96 710 82 695 82 668z" horiz-adv-x="628" unicode="&#x136;"/><glyph d="M82 42C82 14 96 0 123 0l352 0C503 0 517 14 517 42l0 28C517 97 503 111 475 111l-265 0 0 557C210 695 196 710 169 710l-46 0C96 710 82 695 82 668z" horiz-adv-x="521" unicode="&#x4c;"/><glyph d="M142 757l21 0C185 757 200 765 214 782l45 61C281 870 273 893 237 893l-36 0C179 893 164 885 152 864l-35-60C102 778 113 757 142 757M82 42C82 14 96 0 123 0l352 0C503 0 517 14 517 42l0 28C517 97 503 111 475 111l-265 0 0 557C210 695 196 710 169 710l-46 0C96 710 82 695 82 668z" horiz-adv-x="521" unicode="&#x139;"/><glyph d="M294 683C294 665 299 656 299 634 299 599 288 586 288 568 288 553 301 545 325 545l11 0C370 545 399 593 399 648 399 678 390 709 351 709l-20 0C308 709 294 703 294 683M82 42C82 14 96 0 123 0l352 0C503 0 517 14 517 42l0 28C517 97 503 111 475 111l-265 0 0 557C210 695 196 710 169 710l-46 0C96 710 82 695 82 668z" horiz-adv-x="522" unicode="&#x13D;"/><glyph d="M255-81C255-99 260-108 260-130 260-165 249-178 249-196 249-211 262-219 286-219l11 0C331-219 360-171 360-116 360-86 351-55 312-55l-20 0C269-55 255-61 255-81M82 42C82 14 96 0 123 0l352 0C503 0 517 14 517 42l0 28C517 97 503 111 475 111l-265 0 0 557C210 695 196 710 169 710l-46 0C96 710 82 695 82 668z" horiz-adv-x="521" unicode="&#x13B;"/><glyph d="M82 42C82 14 96 0 123 0l352 0C503 0 517 14 517 42l0 28C517 97 503 111 475 111l-265 0 0 557C210 695 196 710 169 710l-46 0C96 710 82 695 82 668M358 321l41 0C426 321 441 335 441 362l0 46C441 435 426 449 399 449l-41 0C331 449 317 435 317 408l0-46C317 335 331 321 358 321z" horiz-adv-x="523" unicode="&#x13F;"/><glyph d="M83 42C83 14 97 0 125 0l352 0C504 0 518 14 518 42l0 28C518 97 504 111 477 111l-266 0 0 226 78 44C308 392 317 407 317 431l0 33C317 498 296 510 268 493l-57-32 0 207C211 695 197 710 170 710l-45 0C97 710 83 695 83 668l0-281-36-20C33 359 26 345 26 321l0-33C26 255 44 243 63 252l20 11z" horiz-adv-x="523" unicode="&#x141;"/><glyph d="M59 43C57 16 71 0 99 0l45 0C171 0 185 14 187 40l27 357C217 444 215 508 215 508l2 0C217 508 240 438 256 397l102-242C366 133 381 122 406 122l42 0C472 122 487 133 495 155l103 242C614 438 636 507 636 507l2 0C638 507 636 444 639 397l27-357C668 14 683 0 709 0l45 0C782 0 796 16 794 43l-51 627C741 696 726 710 700 710l-62 0C613 710 598 699 590 676l-127-317C447 317 428 255 428 255l-2 0C426 255 406 317 390 359l-127 317C255 699 240 710 216 710l-63 0C127 710 113 696 110 670z" horiz-adv-x="853" unicode="&#x4d;"/><glyph d="M82 42C82 14 96 0 123 0l46 0C196 0 210 14 210 42l0 367C210 451 203 519 203 519l2 0C205 519 238 451 264 409l253-381C528 8 544 0 566 0l54 0C647 0 662 14 662 42l0 626C662 695 647 710 620 710l-45 0C548 710 533 695 533 668l0-368C533 258 540 190 540 190l-2 0C538 190 506 258 479 300l-252 382C216 702 201 710 177 710l-54 0C96 710 82 695 82 668z" horiz-adv-x="743" unicode="&#x4e;"/><glyph d="M366 757l21 0C409 757 424 765 438 782l45 61C505 870 497 893 461 893l-36 0C403 893 388 885 376 864l-35-60C326 778 337 757 366 757M82 42C82 14 96 0 123 0l46 0C196 0 210 14 210 42l0 367C210 451 203 519 203 519l2 0C205 519 238 451 264 409l253-381C528 8 544 0 566 0l54 0C647 0 662 14 662 42l0 626C662 695 647 710 620 710l-45 0C548 710 533 695 533 668l0-368C533 258 540 190 540 190l-2 0C538 190 506 258 479 300l-252 382C216 702 201 710 177 710l-54 0C96 710 82 695 82 668z" horiz-adv-x="743" unicode="&#x143;"/><glyph d="M340 757l62 0C425 757 440 765 453 784l40 59C512 871 504 893 475 893l-26 0C425 893 417 885 405 865l-33-53-2 0-34 53C325 885 316 893 293 893l-26 0C238 893 230 871 249 843l40-59C302 765 317 757 340 757M82 42C82 14 96 0 123 0l46 0C196 0 210 14 210 42l0 367C210 451 203 519 203 519l2 0C205 519 238 451 264 409l253-381C528 8 544 0 566 0l54 0C647 0 662 14 662 42l0 626C662 695 647 710 620 710l-45 0C548 710 533 695 533 668l0-368C533 258 540 190 540 190l-2 0C538 190 506 258 479 300l-252 382C216 702 201 710 177 710l-54 0C96 710 82 695 82 668z" horiz-adv-x="743" unicode="&#x147;"/><glyph d="M321-81C321-99 326-108 326-130 326-165 315-178 315-196 315-211 328-219 352-219l11 0C397-219 426-171 426-116 426-86 417-55 378-55l-20 0C335-55 321-61 321-81M82 42C82 14 96 0 123 0l46 0C196 0 210 14 210 42l0 367C210 451 203 519 203 519l2 0C205 519 238 451 264 409l253-381C528 8 544 0 566 0l54 0C647 0 662 14 662 42l0 626C662 695 647 710 620 710l-45 0C548 710 533 695 533 668l0-368C533 258 540 190 540 190l-2 0C538 190 506 258 479 300l-252 382C216 702 201 710 177 710l-54 0C96 710 82 695 82 668z" horiz-adv-x="743" unicode="&#x145;"/><glyph d="M82 42C82 14 96 0 123 0l46 0C196 0 210 14 210 42l0 367C210 451 203 519 203 519l2 0C205 519 238 451 264 409l253-381C528 8 544 0 566 0l54 0C647 0 662 14 662 42l0 626C662 695 647 710 620 710l-45 0C548 710 533 695 533 668l0-368C533 258 540 190 540 190l-2 0C538 190 506 258 479 300l-252 382C216 702 201 710 177 710l-54 0C96 710 82 695 82 668M230 758l10 0C260 758 272 766 274 780 276 802 289 820 312 820 354 820 373 755 449 755 509 755 550 797 550 858 550 882 538 892 513 892l-10 0C482 892 468 883 467 869 465 846 454 830 432 830 390 830 370 895 295 895 235 895 194 850 194 796 194 771 207 758 230 758z" horiz-adv-x="743" unicode="&#xD1;"/><glyph d="M40 360C40 151 192-12 407-12 622-12 774 151 774 360 774 563 622 722 407 722 192 722 40 563 40 360M173 360C173 498 271 604 407 604 543 604 641 498 641 360 641 216 543 106 407 106 271 106 173 216 173 360z" horiz-adv-x="814" unicode="&#x4f;"/><glyph d="M38 356C38 152 201-9 411-9 467-9 499 0 537 0l345 0C909 0 923 14 923 42l0 28C923 97 909 111 882 111l-272 0 0 191 198 0C835 302 850 316 850 344l0 28C850 399 835 413 808 413l-198 0 0 186 255 0C893 599 907 613 907 640l0 28C907 695 893 710 865 710l-328 0C498 710 467 718 411 718 201 718 38 560 38 356M171 356C171 496 272 608 411 608 452 608 482 600 482 600l0-490C482 110 452 102 411 102 272 102 171 214 171 356z" horiz-adv-x="958" unicode="&#x152;"/><glyph d="M402 757l21 0C445 757 460 765 474 782l45 61C541 870 533 893 497 893l-36 0C439 893 424 885 412 864l-35-60C362 778 373 757 402 757M40 360C40 151 192-12 407-12 622-12 774 151 774 360 774 563 622 722 407 722 192 722 40 563 40 360M173 360C173 498 271 604 407 604 543 604 641 498 641 360 641 216 543 106 407 106 271 106 173 216 173 360z" horiz-adv-x="814" unicode="&#xD3;"/><glyph d="M40 360C40 151 192-12 407-12 622-12 774 151 774 360 774 563 622 722 407 722 192 722 40 563 40 360M173 360C173 498 271 604 407 604 543 604 641 498 641 360 641 216 543 106 407 106 271 106 173 216 173 360M407 753C479 753 554 798 554 868 554 884 544 893 518 893l-19 0C474 893 467 878 463 865 456 833 433 822 407 822 379 822 357 833 350 865 347 879 339 893 314 893l-19 0C270 893 260 883 260 868 260 799 336 753 407 753z" horiz-adv-x="814" unicode="&#x14E;"/><glyph d="M303 757l26 0C352 757 361 766 372 786l34 52 2 0 33-52C453 766 461 757 485 757l26 0C540 757 548 779 529 808l-40 58C476 885 461 893 438 893l-62 0C353 893 338 885 325 866l-40-58C266 779 274 757 303 757M40 360C40 151 192-12 407-12 622-12 774 151 774 360 774 563 622 722 407 722 192 722 40 563 40 360M173 360C173 498 271 604 407 604 543 604 641 498 641 360 641 216 543 106 407 106 271 106 173 216 173 360z" horiz-adv-x="814" unicode="&#xD4;"/><glyph d="M491 777l15 0C533 777 547 791 547 819l0 33C547 879 533 893 506 893l-15 0C464 893 450 879 450 852l0-33C450 791 464 777 491 777M308 777l14 0C349 777 364 791 364 819l0 33C364 879 349 893 322 893l-14 0C280 893 266 879 266 852l0-33C266 791 280 777 308 777M40 360C40 151 192-12 407-12 622-12 774 151 774 360 774 563 622 722 407 722 192 722 40 563 40 360M173 360C173 498 271 604 407 604 543 604 641 498 641 360 641 216 543 106 407 106 271 106 173 216 173 360z" horiz-adv-x="814" unicode="&#xD6;"/><glyph d="M40 360C40 151 192-12 407-12 622-12 774 151 774 360 774 563 622 722 407 722 192 722 40 563 40 360M173 360C173 498 271 604 407 604 543 604 641 498 641 360 641 216 543 106 407 106 271 106 173 216 173 360M390 757l26 0C445 757 449 780 436 803l-35 61C389 885 374 893 352 893l-37 0C280 893 272 870 294 843l45-61C353 765 368 757 390 757z" horiz-adv-x="814" unicode="&#xD2;"/><glyph d="M483 757l13 0C518 757 533 765 547 782l45 61C613 870 606 893 570 893l-31 0C517 893 502 885 490 864l-33-57C442 778 450 757 483 757M308 757l19 0C349 757 364 766 376 787l31 57C423 873 413 893 381 893l-21 0C337 893 321 884 311 863l-31-57C266 778 275 757 308 757M40 360C40 151 192-12 407-12 622-12 774 151 774 360 774 563 622 722 407 722 192 722 40 563 40 360M173 360C173 498 271 604 407 604 543 604 641 498 641 360 641 216 543 106 407 106 271 106 173 216 173 360z" horiz-adv-x="814" unicode="&#x150;"/><glyph d="M317 783l179 0C523 783 538 796 538 823l0 7C538 858 523 870 496 870l-179 0C290 870 276 858 276 830l0-7C276 796 290 783 317 783M40 360C40 151 192-12 407-12 622-12 774 151 774 360 774 563 622 722 407 722 192 722 40 563 40 360M173 360C173 498 271 604 407 604 543 604 641 498 641 360 641 216 543 106 407 106 271 106 173 216 173 360z" horiz-adv-x="814" unicode="&#x14C;"/><glyph d="M131 40C118 23 121 7 140-6 160-20 177-15 194 7l22 33C272 6 336-12 407-12 616-12 774 151 774 359 774 473 725 571 647 637l26 38C684 689 680 703 662 717 642 730 624 725 608 704l-19-28C536 705 474 722 407 722 198 722 40 563 40 359 40 247 86 148 160 81M236 186C198 229 173 290 173 359 173 500 277 604 407 604 447 604 484 593 516 575M288 140l284 393C615 490 641 429 641 359 641 214 537 106 407 106 364 106 323 118 288 140z" horiz-adv-x="813" unicode="&#xD8;"/><glyph d="M40 360C40 151 192-12 407-12 622-12 774 151 774 360 774 563 622 722 407 722 192 722 40 563 40 360M173 360C173 498 271 604 407 604 543 604 641 498 641 360 641 216 543 106 407 106 271 106 173 216 173 360M265 758l10 0C295 758 307 766 309 780 311 802 324 820 347 820 389 820 408 755 484 755 544 755 585 797 585 858 585 882 573 892 548 892l-10 0C517 892 503 883 502 869 500 846 489 830 467 830 425 830 405 895 330 895 270 895 229 850 229 796 229 771 242 758 265 758z" horiz-adv-x="814" unicode="&#xD5;"/><glyph d="M82 42C82 14 96 0 123 0l46 0C196 0 210 14 210 42l0 203 145 0C488 245 581 341 581 479 581 617 488 710 355 710l-232 0C96 710 82 695 82 668M210 357l0 242 123 0C407 599 450 552 450 479 450 405 407 357 331 357z" horiz-adv-x="604" unicode="&#x50;"/><glyph d="M40 359C40 152 192-12 407-12 490-12 564 13 624 58l51-51C692-10 712-8 730 11l18 19C766 51 764 72 744 89l-48 45C744 196 774 273 774 359 774 563 622 722 407 722 193 722 40 563 40 359M173 359C173 499 273 604 407 604 540 604 641 499 641 359 641 309 627 261 602 222l-50 51C535 290 515 288 497 268l-18-19C461 229 463 208 482 191l49-47C497 119 451 106 407 106 273 106 173 216 173 359z" horiz-adv-x="814" unicode="&#x51;"/><glyph d="M82 42C82 14 96 0 123 0l46 0C196 0 210 14 210 42l0 223 124 0 125-236C470 9 485 0 508 0l54 0C595 0 608 21 591 50l-117 214C460 290 451 301 451 301l0 2C525 333 569 413 569 497 569 593 522 661 450 691 420 704 385 710 315 710l-192 0C96 710 82 695 82 668M210 377l0 222 95 0C343 599 365 595 382 587 421 571 438 535 438 490 438 420 395 377 326 377z" horiz-adv-x="626" unicode="&#x52;"/><glyph d="M300 757l21 0C343 757 358 765 372 782l45 61C439 870 431 893 395 893l-36 0C337 893 322 885 310 864l-35-60C260 778 271 757 300 757M82 42C82 14 96 0 123 0l46 0C196 0 210 14 210 42l0 223 124 0 125-236C470 9 485 0 508 0l54 0C595 0 608 21 591 50l-117 214C460 290 451 301 451 301l0 2C525 333 569 413 569 497 569 593 522 661 450 691 420 704 385 710 315 710l-192 0C96 710 82 695 82 668M210 377l0 222 95 0C343 599 365 595 382 587 421 571 438 535 438 490 438 420 395 377 326 377z" horiz-adv-x="626" unicode="&#x154;"/><glyph d="M274 757l62 0C359 757 374 765 387 784l40 59C446 871 438 893 409 893l-26 0C359 893 351 885 339 865l-33-53-2 0-34 53C259 885 250 893 227 893l-26 0C172 893 164 871 183 843l40-59C236 765 251 757 274 757M82 42C82 14 96 0 123 0l46 0C196 0 210 14 210 42l0 223 124 0 125-236C470 9 485 0 508 0l54 0C595 0 608 21 591 50l-117 214C460 290 451 301 451 301l0 2C525 333 569 413 569 497 569 593 522 661 450 691 420 704 385 710 315 710l-192 0C96 710 82 695 82 668M210 377l0 222 95 0C343 599 365 595 382 587 421 571 438 535 438 490 438 420 395 377 326 377z" horiz-adv-x="626" unicode="&#x158;"/><glyph d="M276-81C276-99 281-108 281-130 281-165 270-178 270-196 270-211 283-219 307-219l11 0C352-219 381-171 381-116 381-86 372-55 333-55l-20 0C290-55 276-61 276-81M82 42C82 14 96 0 123 0l46 0C196 0 210 14 210 42l0 223 124 0 125-236C470 9 485 0 508 0l54 0C595 0 608 21 591 50l-117 214C460 290 451 301 451 301l0 2C525 333 569 413 569 497 569 593 522 661 450 691 420 704 385 710 315 710l-192 0C96 710 82 695 82 668M210 377l0 222 95 0C343 599 365 595 382 587 421 571 438 535 438 490 438 420 395 377 326 377z" horiz-adv-x="626" unicode="&#x156;"/><glyph d="M57 60C92 33 174-12 275-12 424-12 510 83 510 198 510 424 179 390 179 523 179 571 221 603 287 603 342 603 381 581 410 564 431 553 452 549 467 578l18 33C497 633 494 652 472 668 442 690 373 722 289 722 154 722 50 641 50 516 50 295 381 323 381 188 381 140 341 107 275 107 205 107 154 143 131 159 106 173 89 172 73 150l-22-32C31 91 41 74 57 60z" horiz-adv-x="549" unicode="&#x53;"/><glyph d="M270 757l21 0C313 757 328 765 342 782l45 61C409 870 401 893 365 893l-36 0C307 893 292 885 280 864l-35-60C230 778 241 757 270 757M57 60C92 33 174-12 275-12 424-12 510 83 510 198 510 424 179 390 179 523 179 571 221 603 287 603 342 603 381 581 410 564 431 553 452 549 467 578l18 33C497 633 494 652 472 668 442 690 373 722 289 722 154 722 50 641 50 516 50 295 381 323 381 188 381 140 341 107 275 107 205 107 154 143 131 159 106 173 89 172 73 150l-22-32C31 91 41 74 57 60z" horiz-adv-x="549" unicode="&#x15A;"/><glyph d="M244 757l62 0C329 757 344 765 357 784l40 59C416 871 408 893 379 893l-26 0C329 893 321 885 309 865l-33-53-2 0-34 53C229 885 220 893 197 893l-26 0C142 893 134 871 153 843l40-59C206 765 221 757 244 757M57 60C92 33 174-12 275-12 424-12 510 83 510 198 510 424 179 390 179 523 179 571 221 603 287 603 342 603 381 581 410 564 431 553 452 549 467 578l18 33C497 633 494 652 472 668 442 690 373 722 289 722 154 722 50 641 50 516 50 295 381 323 381 188 381 140 341 107 275 107 205 107 154 143 131 159 106 173 89 172 73 150l-22-32C31 91 41 74 57 60z" horiz-adv-x="549" unicode="&#x160;"/><glyph d="M230-53C225-72 231-83 245-84 271-87 290-94 290-113 290-133 274-142 253-142 244-142 237-139 228-139 217-139 207-152 207-174 207-205 242-208 264-208 318-208 372-186 372-120 372-73 340-49 299-44l7 34C436 2 510 91 510 198 510 424 179 390 179 523 179 571 221 603 287 603 342 603 381 581 410 564 431 553 452 549 467 578l18 33C497 633 494 652 472 668 442 690 373 722 289 722 154 722 50 641 50 516 50 295 381 323 381 188 381 140 341 107 275 107 205 107 154 143 131 159 106 173 89 172 73 150l-22-32C31 91 41 74 57 60 88 36 156-2 241-10z" horiz-adv-x="550" unicode="&#x15E;"/><glyph d="M171 757l26 0C220 757 229 766 240 786l34 52 2 0 33-52C321 766 329 757 353 757l26 0C408 757 416 779 397 808l-40 58C344 885 329 893 306 893l-62 0C221 893 206 885 193 866l-40-58C134 779 142 757 171 757M57 60C92 33 174-12 275-12 424-12 510 83 510 198 510 424 179 390 179 523 179 571 221 603 287 603 342 603 381 581 410 564 431 553 452 549 467 578l18 33C497 633 494 652 472 668 442 690 373 722 289 722 154 722 50 641 50 516 50 295 381 323 381 188 381 140 341 107 275 107 205 107 154 143 131 159 106 173 89 172 73 150l-22-32C31 91 41 74 57 60z" horiz-adv-x="549" unicode="&#x15C;"/><glyph d="M218-81C218-99 223-108 223-130 223-165 212-178 212-196 212-211 225-219 249-219l11 0C294-219 323-171 323-116 323-86 314-55 275-55l-20 0C232-55 218-61 218-81M57 60C92 33 174-12 275-12 424-12 510 83 510 198 510 424 179 390 179 523 179 571 221 603 287 603 342 603 381 581 410 564 431 553 452 549 467 578l18 33C497 633 494 652 472 668 442 690 373 722 289 722 154 722 50 641 50 516 50 295 381 323 381 188 381 140 341 107 275 107 205 107 154 143 131 159 106 173 89 172 73 150l-22-32C31 91 41 74 57 60z" horiz-adv-x="549" unicode="&#x218;"/><glyph d="M239 42C239 14 253 0 280 0l45 0C353 0 367 14 367 42l0 557 191 0C585 599 599 613 599 640l0 28C599 695 585 710 558 710l-510 0C20 710 6 695 6 668l0-28C6 613 20 599 48 599l191 0z" horiz-adv-x="605" unicode="&#x54;"/><glyph d="M239 42C239 14 253 0 280 0l46 0C353 0 367 14 367 42l0 253 114 0C509 295 523 309 523 337l0 13C523 377 509 391 481 391l-114 0 0 208 191 0C585 599 600 613 600 640l0 28C600 695 585 710 558 710l-510 0C21 710 6 695 6 668l0-28C6 613 21 599 48 599l191 0 0-208-109 0C103 391 88 377 88 350l0-13C88 309 103 295 130 295l109 0z" horiz-adv-x="607" unicode="&#x166;"/><glyph d="M271 757l62 0C356 757 371 765 384 784l40 59C443 871 435 893 406 893l-26 0C356 893 348 885 336 865l-33-53-2 0-34 53C256 885 247 893 224 893l-26 0C169 893 161 871 180 843l40-59C233 765 248 757 271 757M239 42C239 14 253 0 280 0l45 0C353 0 367 14 367 42l0 557 191 0C585 599 599 613 599 640l0 28C599 695 585 710 558 710l-510 0C20 710 6 695 6 668l0-28C6 613 20 599 48 599l191 0z" horiz-adv-x="605" unicode="&#x164;"/><glyph d="M253-53C248-72 254-83 268-84 294-87 313-94 313-113 313-133 297-142 276-142 267-142 260-139 251-139 240-139 230-152 230-174 230-205 265-208 287-208 341-208 395-186 395-120 395-73 363-49 322-44l9 44C355 2 367 16 367 42l0 557 191 0C585 599 599 613 599 640l0 28C599 695 585 710 558 710l-510 0C20 710 6 695 6 668l0-28C6 613 20 599 48 599l191 0 0-557C239 18 249 5 268 1z" horiz-adv-x="605" unicode="&#x162;"/><glyph d="M82 42C82 14 96 0 123 0l46 0C196 0 210 14 210 42l0 89 144 0C488 131 581 226 581 364 581 502 488 595 355 595l-145 0 0 74C210 695 196 710 169 710l-46 0C96 710 82 695 82 668M210 242l0 242 123 0C407 484 450 438 450 364 450 290 407 242 331 242z" horiz-adv-x="606" unicode="&#xDE;"/><glyph d="M74 255C74 96 188-12 360-12 531-12 645 96 645 255l0 413C645 695 631 710 604 710l-46 0C531 710 517 695 517 668l0-412C517 160 454 106 359 106 264 106 202 160 202 256l0 412C202 695 188 710 160 710l-45 0C88 710 74 695 74 668z" horiz-adv-x="719" unicode="&#x55;"/><glyph d="M354 757l21 0C397 757 412 765 426 782l45 61C493 870 485 893 449 893l-36 0C391 893 376 885 364 864l-35-60C314 778 325 757 354 757M74 255C74 96 188-12 360-12 531-12 645 96 645 255l0 413C645 695 631 710 604 710l-46 0C531 710 517 695 517 668l0-412C517 160 454 106 359 106 264 106 202 160 202 256l0 412C202 695 188 710 160 710l-45 0C88 710 74 695 74 668z" horiz-adv-x="719" unicode="&#xDA;"/><glyph d="M74 255C74 96 188-12 360-12 531-12 645 96 645 255l0 413C645 695 631 710 604 710l-46 0C531 710 517 695 517 668l0-412C517 160 454 106 359 106 264 106 202 160 202 256l0 412C202 695 188 710 160 710l-45 0C88 710 74 695 74 668M359 753C431 753 506 798 506 868 506 884 496 893 470 893l-19 0C426 893 419 878 415 865 408 833 385 822 359 822 331 822 309 833 302 865 299 879 291 893 266 893l-19 0C222 893 212 883 212 868 212 799 288 753 359 753z" horiz-adv-x="719" unicode="&#x16C;"/><glyph d="M255 757l26 0C304 757 313 766 324 786l34 52 2 0 33-52C405 766 413 757 437 757l26 0C492 757 500 779 481 808l-40 58C428 885 413 893 390 893l-62 0C305 893 290 885 277 866l-40-58C218 779 226 757 255 757M74 255C74 96 188-12 360-12 531-12 645 96 645 255l0 413C645 695 631 710 604 710l-46 0C531 710 517 695 517 668l0-412C517 160 454 106 359 106 264 106 202 160 202 256l0 412C202 695 188 710 160 710l-45 0C88 710 74 695 74 668z" horiz-adv-x="719" unicode="&#xDB;"/><glyph d="M444 777l15 0C486 777 500 791 500 819l0 33C500 879 486 893 459 893l-15 0C417 893 403 879 403 852l0-33C403 791 417 777 444 777M261 777l14 0C302 777 317 791 317 819l0 33C317 879 302 893 275 893l-14 0C233 893 219 879 219 852l0-33C219 791 233 777 261 777M74 255C74 96 188-12 360-12 531-12 645 96 645 255l0 413C645 695 631 710 604 710l-46 0C531 710 517 695 517 668l0-412C517 160 454 106 359 106 264 106 202 160 202 256l0 412C202 695 188 710 160 710l-45 0C88 710 74 695 74 668z" horiz-adv-x="719" unicode="&#xDC;"/><glyph d="M74 255C74 96 188-12 360-12 531-12 645 96 645 255l0 413C645 695 631 710 604 710l-46 0C531 710 517 695 517 668l0-412C517 160 454 106 359 106 264 106 202 160 202 256l0 412C202 695 188 710 160 710l-45 0C88 710 74 695 74 668M342 757l26 0C397 757 401 780 388 803l-35 61C341 885 326 893 304 893l-37 0C232 893 224 870 246 843l45-61C305 765 320 757 342 757z" horiz-adv-x="719" unicode="&#xD9;"/><glyph d="M74 255C74 96 188-12 360-12 531-12 645 96 645 255l0 413C645 695 631 710 604 710l-46 0C531 710 517 695 517 668l0-412C517 160 454 106 359 106 264 106 202 160 202 256l0 412C202 695 188 710 160 710l-45 0C88 710 74 695 74 668M435 757l13 0C470 757 485 765 499 782l45 61C565 870 558 893 522 893l-31 0C469 893 454 885 442 864l-33-57C394 778 402 757 435 757M260 757l19 0C301 757 316 766 328 787l31 57C375 873 365 893 333 893l-21 0C289 893 273 884 263 863l-31-57C218 778 227 757 260 757z" horiz-adv-x="719" unicode="&#x170;"/><glyph d="M74 255C74 96 188-12 360-12 531-12 645 96 645 255l0 413C645 695 631 710 604 710l-46 0C531 710 517 695 517 668l0-412C517 160 454 106 359 106 264 106 202 160 202 256l0 412C202 695 188 710 160 710l-45 0C88 710 74 695 74 668M270 783l179 0C476 783 491 796 491 823l0 7C491 858 476 870 449 870l-179 0C243 870 229 858 229 830l0-7C229 796 243 783 270 783z" horiz-adv-x="719" unicode="&#x16A;"/><glyph d="M74 255C74 93 194-15 367-12 341-36 315-70 315-108 315-170 381-197 424-203 443-205 459-196 462-175l3 21C468-134 464-121 450-115 435-109 415-101 415-80 415-44 488 7 521 29 585 76 645 133 645 255l0 413C645 695 631 710 604 710l-46 0C531 710 517 695 517 668l0-412C517 160 454 106 359 106 264 106 202 160 202 256l0 412C202 695 188 710 160 710l-45 0C88 710 74 695 74 668z" horiz-adv-x="719" unicode="&#x172;"/><glyph d="M359 745C406 745 453 772 453 823 453 875 406 902 359 902 311 902 264 875 264 823 264 772 311 745 359 745M359 789C338 789 325 803 325 823 325 844 339 858 359 858 379 858 393 844 393 823 393 803 379 789 359 789M74 255C74 96 188-12 360-12 531-12 645 96 645 255l0 413C645 695 631 710 604 710l-46 0C531 710 517 695 517 668l0-412C517 160 454 106 359 106 264 106 202 160 202 256l0 412C202 695 188 710 160 710l-45 0C88 710 74 695 74 668z" horiz-adv-x="719" unicode="&#x16E;"/><glyph d="M74 255C74 96 188-12 360-12 531-12 645 96 645 255l0 413C645 695 631 710 604 710l-46 0C531 710 517 695 517 668l0-412C517 160 454 106 359 106 264 106 202 160 202 256l0 412C202 695 188 710 160 710l-45 0C88 710 74 695 74 668M218 758l10 0C248 758 260 766 262 780 264 802 277 820 300 820 342 820 361 755 437 755 497 755 538 797 538 858 538 882 526 892 501 892l-10 0C470 892 456 883 455 869 453 846 442 830 420 830 378 830 358 895 283 895 223 895 182 850 182 796 182 771 195 758 218 758z" horiz-adv-x="719" unicode="&#x168;"/><glyph d="M240 33C248 10 263 0 287 0l64 0C375 0 390 10 398 33l227 629C635 691 622 710 591 710l-51 0C516 710 500 699 494 675l-147-428C333 206 320 143 320 143l-2 0C318 143 304 206 291 247l-145 428C139 699 123 710 99 710l-53 0C15 710 2 691 12 662z" horiz-adv-x="638" unicode="&#x56;"/><glyph d="M192 36C198 12 213 0 238 0l72 0C335 0 350 12 356 36l102 384C469 466 476 513 476 513l3 0C479 513 486 466 498 420l101-384C605 12 620 0 645 0l71 0C741 0 756 11 763 35l163 629C933 692 919 710 889 710l-47 0C816 710 801 698 796 673l-109-454C678 179 675 144 675 144l-2 0C673 144 669 178 658 219l-117 455C536 698 521 710 496 710l-34 0C437 710 422 698 415 674l-118-455C286 178 282 144 282 144l-2 0C280 144 278 179 269 219l-103 454C160 698 145 710 121 710l-50 0C41 710 28 692 35 664z" horiz-adv-x="960" unicode="&#x57;"/><glyph d="M377 757l26 0C426 757 435 766 446 786l34 52 2 0 33-52C527 766 535 757 559 757l26 0C614 757 622 779 603 808l-40 58C550 885 535 893 512 893l-62 0C427 893 412 885 399 866l-40-58C340 779 348 757 377 757M192 36C198 12 213 0 238 0l72 0C335 0 350 12 356 36l102 384C469 466 476 513 476 513l3 0C479 513 486 466 498 420l101-384C605 12 620 0 645 0l71 0C741 0 756 11 763 35l163 629C933 692 919 710 889 710l-47 0C816 710 801 698 796 673l-109-454C678 179 675 144 675 144l-2 0C673 144 669 178 658 219l-117 455C536 698 521 710 496 710l-34 0C437 710 422 698 415 674l-118-455C286 178 282 144 282 144l-2 0C280 144 278 179 269 219l-103 454C160 698 145 710 121 710l-50 0C41 710 28 692 35 664z" horiz-adv-x="960" unicode="&#x174;"/><glyph d="M36 50C18 21 31 0 65 0l51 0C139 0 154 9 165 29l94 162C282 232 302 275 302 275l2 0C304 275 325 232 348 191l95-162C454 9 469 0 492 0l52 0C578 0 590 21 572 50l-190 310 183 300C582 688 570 710 537 710l-56 0C458 710 443 701 432 681l-83-145C326 494 305 449 305 449l-2 0C303 449 281 495 259 536l-82 145C166 701 151 710 128 710l-56 0C39 710 27 688 44 660l182-300z" horiz-adv-x="608" unicode="&#x58;"/><glyph d="M226 42C226 14 240 0 268 0l45 0C340 0 354 14 354 42l0 255 209 363C579 688 567 710 534 710l-56 0C455 710 440 700 430 679l-96-178C312 457 291 406 291 406l-2 0C289 406 268 457 246 501l-96 178C140 700 125 710 102 710l-56 0C14 710 1 688 18 660l208-363z" horiz-adv-x="580" unicode="&#x59;"/><glyph d="M226 42C226 14 240 0 268 0l45 0C340 0 354 14 354 42l0 255 209 363C579 688 567 710 534 710l-56 0C455 710 440 700 430 679l-96-178C312 457 291 406 291 406l-2 0C289 406 268 457 246 501l-96 178C140 700 125 710 102 710l-56 0C14 710 1 688 18 660l208-363M285 757l21 0C328 757 343 765 357 782l45 61C424 870 416 893 380 893l-36 0C322 893 307 885 295 864l-35-60C245 778 256 757 285 757z" horiz-adv-x="580" unicode="&#xDD;"/><glyph d="M226 42C226 14 240 0 268 0l45 0C340 0 354 14 354 42l0 255 209 363C579 688 567 710 534 710l-56 0C455 710 440 700 430 679l-96-178C312 457 291 406 291 406l-2 0C289 406 268 457 246 501l-96 178C140 700 125 710 102 710l-56 0C14 710 1 688 18 660l208-363M186 757l26 0C235 757 244 766 255 786l34 52 2 0 33-52C336 766 344 757 368 757l26 0C423 757 431 779 412 808l-40 58C359 885 344 893 321 893l-62 0C236 893 221 885 208 866l-40-58C149 779 157 757 186 757z" horiz-adv-x="580" unicode="&#x176;"/><glyph d="M226 42C226 14 240 0 268 0l45 0C340 0 354 14 354 42l0 255 209 363C579 688 567 710 534 710l-56 0C455 710 440 700 430 679l-96-178C312 457 291 406 291 406l-2 0C289 406 268 457 246 501l-96 178C140 700 125 710 102 710l-56 0C14 710 1 688 18 660l208-363M373 777l15 0C415 777 429 791 429 819l0 33C429 879 415 893 388 893l-15 0C346 893 332 879 332 852l0-33C332 791 346 777 373 777M190 777l14 0C231 777 246 791 246 819l0 33C246 879 231 893 204 893l-14 0C162 893 148 879 148 852l0-33C148 791 162 777 190 777z" horiz-adv-x="580" unicode="&#x178;"/><glyph d="M31 42C31 14 46 0 73 0l450 0C550 0 565 14 565 42l0 28C565 97 550 111 523 111l-277 0C213 111 193 109 193 109l0 2C193 111 217 134 245 175l299 429C556 621 560 636 560 657l0 12C560 695 546 710 519 710l-430 0C62 710 47 695 47 668l0-28C47 613 62 599 89 599l256 0C378 599 398 601 398 601l0-2C398 599 374 576 346 535l-298-428C36 90 31 75 31 54z" horiz-adv-x="601" unicode="&#x5a;"/><glyph d="M306 757l21 0C349 757 364 765 378 782l45 61C445 870 437 893 401 893l-36 0C343 893 328 885 316 864l-35-60C266 778 277 757 306 757M31 42C31 14 46 0 73 0l450 0C550 0 565 14 565 42l0 28C565 97 550 111 523 111l-277 0C213 111 193 109 193 109l0 2C193 111 217 134 245 175l299 429C556 621 560 636 560 657l0 12C560 695 546 710 519 710l-430 0C62 710 47 695 47 668l0-28C47 613 62 599 89 599l256 0C378 599 398 601 398 601l0-2C398 599 374 576 346 535l-298-428C36 90 31 75 31 54z" horiz-adv-x="601" unicode="&#x179;"/><glyph d="M280 757l62 0C365 757 380 765 393 784l40 59C452 871 444 893 415 893l-26 0C365 893 357 885 345 865l-33-53-2 0-34 53C265 885 256 893 233 893l-26 0C178 893 170 871 189 843l40-59C242 765 257 757 280 757M31 42C31 14 46 0 73 0l450 0C550 0 565 14 565 42l0 28C565 97 550 111 523 111l-277 0C213 111 193 109 193 109l0 2C193 111 217 134 245 175l299 429C556 621 560 636 560 657l0 12C560 695 546 710 519 710l-430 0C62 710 47 695 47 668l0-28C47 613 62 599 89 599l256 0C378 599 398 601 398 601l0-2C398 599 374 576 346 535l-298-428C36 90 31 75 31 54z" horiz-adv-x="601" unicode="&#x17D;"/><glyph d="M31 42C31 14 46 0 73 0l450 0C550 0 565 14 565 42l0 28C565 97 550 111 523 111l-277 0C213 111 193 109 193 109l0 2C193 111 217 134 245 175l299 429C556 621 560 636 560 657l0 12C560 695 546 710 519 710l-430 0C62 710 47 695 47 668l0-28C47 613 62 599 89 599l256 0C378 599 398 601 398 601l0-2C398 599 374 576 346 535l-298-428C36 90 31 75 31 54M298 782l26 0C351 782 365 797 365 824l0 28C365 879 351 893 324 893l-26 0C271 893 257 879 257 852l0-28C257 797 271 782 298 782z" horiz-adv-x="601" unicode="&#x17B;"/><glyph d="M24 141C24 48 100-12 193-12 305-12 353 84 353 84l2 0C355 84 353 76 353 62l0-20C353 14 367 0 394 0l34 0C456 0 470 14 470 42l0 277C470 448 391 522 259 522 183 522 125 497 92 480 68 467 64 447 76 424l10-19C98 381 117 377 142 388 166 401 205 417 248 417 300 417 343 394 343 327l0-12-21 0C208 315 24 290 24 141M150 152C150 228 259 238 323 238l21 0 0-19C344 157 298 85 227 85 176 85 150 118 150 152z" horiz-adv-x="525" unicode="&#x61;"/><glyph d="M24 141C24 48 100-12 193-12 305-12 353 84 353 84l2 0C355 84 353 76 353 62l0-20C353 14 367 0 394 0l34 0C456 0 470 14 470 42l0 277C470 448 391 522 259 522 183 522 125 497 92 480 68 467 64 447 76 424l10-19C98 381 117 377 142 388 166 401 205 417 248 417 300 417 343 394 343 327l0-12-21 0C208 315 24 290 24 141M150 152C150 228 259 238 323 238l21 0 0-19C344 157 298 85 227 85 176 85 150 118 150 152M256 574l21 0C299 574 314 582 328 599l45 61C395 687 387 710 351 710l-36 0C293 710 278 702 266 681l-35-60C216 595 227 574 256 574z" horiz-adv-x="525" unicode="&#xE1;"/><glyph d="M24 141C24 48 100-12 193-12 305-12 353 84 353 84l2 0C355 84 353 76 353 62l0-20C353 14 367 0 394 0l34 0C456 0 470 14 470 42l0 277C470 448 391 522 259 522 183 522 125 497 92 480 68 467 64 447 76 424l10-19C98 381 117 377 142 388 166 401 205 417 248 417 300 417 343 394 343 327l0-12-21 0C208 315 24 290 24 141M150 152C150 228 259 238 323 238l21 0 0-19C344 157 298 85 227 85 176 85 150 118 150 152M262 570C334 570 409 615 409 685 409 701 399 710 373 710l-19 0C329 710 322 695 318 682 311 650 288 639 262 639 234 639 212 650 205 682 202 696 194 710 169 710l-19 0C125 710 115 700 115 685 115 616 191 570 262 570z" horiz-adv-x="525" unicode="&#x103;"/><glyph d="M24 141C24 48 100-12 193-12 305-12 353 84 353 84l2 0C355 84 353 76 353 62l0-20C353 14 367 0 394 0l34 0C456 0 470 14 470 42l0 277C470 448 391 522 259 522 183 522 125 497 92 480 68 467 64 447 76 424l10-19C98 381 117 377 142 388 166 401 205 417 248 417 300 417 343 394 343 327l0-12-21 0C208 315 24 290 24 141M150 152C150 228 259 238 323 238l21 0 0-19C344 157 298 85 227 85 176 85 150 118 150 152M158 574l26 0C207 574 216 583 227 603l34 52 2 0 33-52C308 583 316 574 340 574l26 0C395 574 403 596 384 625l-40 58C331 702 316 710 293 710l-62 0C208 710 193 702 180 683l-40-58C121 596 129 574 158 574z" horiz-adv-x="525" unicode="&#xE2;"/><glyph d="M193 757l21 0C236 757 251 765 265 782l45 61C332 870 324 893 288 893l-36 0C230 893 215 885 203 864l-35-60C153 778 164 757 193 757z" horiz-adv-x="493" unicode="&#xB4;"/><glyph d="M24 141C24 48 100-12 193-12 305-12 353 84 353 84l2 0C355 84 353 76 353 62l0-20C353 14 367 0 394 0l34 0C456 0 470 14 470 42l0 277C470 448 391 522 259 522 183 522 125 497 92 480 68 467 64 447 76 424l10-19C98 381 117 377 142 388 166 401 205 417 248 417 300 417 343 394 343 327l0-12-21 0C208 315 24 290 24 141M150 152C150 228 259 238 323 238l21 0 0-19C344 157 298 85 227 85 176 85 150 118 150 152M346 594l15 0C388 594 402 608 402 636l0 33C402 696 388 710 361 710l-15 0C319 710 305 696 305 669l0-33C305 608 319 594 346 594M163 594l14 0C204 594 219 608 219 636l0 33C219 696 204 710 177 710l-14 0C135 710 121 696 121 669l0-33C121 608 135 594 163 594z" horiz-adv-x="525" unicode="&#xE4;"/><glyph d="M26 147C26 47 105-11 200-11 327-11 381 76 391 100l2 0C435 31 506-12 607-12 687-12 747 18 780 39 802 52 806 72 793 95l-10 19C770 138 751 141 726 129 702 114 663 96 616 96 539 96 474 142 466 237l308 0C799 237 818 259 818 280 818 419 737 522 592 522 520 522 463 496 423 447l-2 0C392 493 343 522 255 522 181 522 124 497 92 479 69 467 65 446 77 423l9-18C99 381 118 377 143 388 167 401 205 417 246 417 303 417 344 394 344 327l0-12-16 0C232 315 26 304 26 147M470 315C483 383 526 423 591 423 644 423 688 382 690 315M154 153C154 222 243 237 311 237l35 0 0-15C346 159 301 87 232 87 179 87 154 118 154 153z" horiz-adv-x="847" unicode="&#xE6;"/><glyph d="M24 141C24 48 100-12 193-12 305-12 353 84 353 84l2 0C355 84 353 76 353 62l0-20C353 14 367 0 394 0l34 0C456 0 470 14 470 42l0 277C470 448 391 522 259 522 183 522 125 497 92 480 68 467 64 447 76 424l10-19C98 381 117 377 142 388 166 401 205 417 248 417 300 417 343 394 343 327l0-12-21 0C208 315 24 290 24 141M150 152C150 228 259 238 323 238l21 0 0-19C344 157 298 85 227 85 176 85 150 118 150 152M247 574l26 0C302 574 306 597 293 620l-35 61C246 702 231 710 209 710l-37 0C137 710 129 687 151 660l45-61C210 582 225 574 247 574z" horiz-adv-x="525" unicode="&#xE0;"/><glyph d="M24 141C24 48 100-12 193-12 305-12 353 84 353 84l2 0C355 84 353 76 353 62l0-20C353 14 367 0 394 0l34 0C456 0 470 14 470 42l0 277C470 448 391 522 259 522 183 522 125 497 92 480 68 467 64 447 76 424l10-19C98 381 117 377 142 388 166 401 205 417 248 417 300 417 343 394 343 327l0-12-21 0C208 315 24 290 24 141M150 152C150 228 259 238 323 238l21 0 0-19C344 157 298 85 227 85 176 85 150 118 150 152M172 600l179 0C378 600 393 613 393 640l0 7C393 675 378 687 351 687l-179 0C145 687 131 675 131 647l0-7C131 613 145 600 172 600z" horiz-adv-x="525" unicode="&#x101;"/><glyph d="M39 201C39 81 139-12 292-12 453-12 548 84 548 229l0 84 50 0C625 313 640 328 640 355l0 28C640 410 625 425 598 425l-50 0 0 58C548 506 533 517 506 517l-43 0C436 517 421 503 421 476l0-51-113 0C223 425 200 478 200 519 200 571 238 614 303 614l33 0C363 614 378 628 378 655l0 25C378 707 363 722 336 722l-42 0C171 722 70 661 70 535 70 415 160 380 160 380l0-2C85 352 39 278 39 201M171 209C171 278 222 313 301 313l120 0 0-77C421 150 373 106 292 106 219 106 171 152 171 209z" horiz-adv-x="652" unicode="&#x26;&#x61;&#x6d;&#x70;&#x3b;"/><glyph d="M24 141C24 48 100-12 193-12 305-12 353 84 353 84l2 0C355 84 353 76 353 62l0-20C353 27 357 15 366 9 338-16 302-57 302-108 302-170 367-197 410-203 429-205 445-196 448-175l3 21C454-134 450-121 436-115 421-109 402-101 402-80 402-25 470-8 470 42l0 277C470 448 391 522 259 522 183 522 125 497 92 480 68 467 64 447 76 424l10-19C98 381 117 377 142 388 166 401 205 417 248 417 300 417 343 394 343 327l0-12-21 0C208 315 24 290 24 141M150 152C150 228 259 238 323 238l21 0 0-19C344 157 298 85 227 85 176 85 150 118 150 152z" horiz-adv-x="527" unicode="&#x105;"/><glyph d="M168-5l265-141 134 71 132-71 265 141 0 152 124 72 0 278-124 71 0 151-265 142-132-71-134 71-265-142 0-151-126-71 0-278 126-72M208 30l0 139-114 64 0 249 114 66 0 136 238 126 121-64 118 64 238-126 0-136 114-66 0-249-114-64 0-139-238-126-118 66-121-66M242 64l215-114 110 58 107-58 214 114 0 121 100 60 0 225-100 58 0 123-214 114-107-59-110 59-215-114 0-123-99-58 0-225 99-60M433 91l0 426-54 0 0 84 337 0C755 601 767 585 767 550l0-86-89 0 0 29C678 509 675 517 657 517l-125 0 0-151 194 0 0-84-194 0 0-191z" horiz-adv-x="1130" unicode="&#xF8FF;"/><glyph d="M79 357C94 334 112 334 136 349 157 364 183 376 209 376 280 376 313 306 407 306 456 306 501 329 535 357 555 372 557 393 543 414l-5 7C523 444 505 444 481 429 460 414 434 402 407 402 336 402 303 472 209 472 161 472 116 449 82 422 61 406 60 386 74 364M79 153C94 130 112 129 136 145 157 160 183 172 209 172 280 172 313 102 407 102 456 102 501 125 535 152 555 168 557 188 543 210l-5 6C523 239 505 239 481 224 460 209 434 197 407 197 336 197 303 267 209 267 161 267 116 244 82 217 61 201 60 181 74 159z" horiz-adv-x="619" unicode="&#x2248;"/><glyph d="M24 141C24 48 100-12 193-12 305-12 353 84 353 84l2 0C355 84 353 76 353 62l0-20C353 14 367 0 394 0l34 0C456 0 470 14 470 42l0 277C470 448 391 522 259 522 183 522 125 497 92 480 68 467 64 447 76 424l10-19C98 381 117 377 142 388 166 401 205 417 248 417 300 417 343 394 343 327l0-12-21 0C208 315 24 290 24 141M150 152C150 228 259 238 323 238l21 0 0-19C344 157 298 85 227 85 176 85 150 118 150 152M262 562C309 562 356 589 356 640 356 692 309 719 262 719 214 719 167 692 167 640 167 589 214 562 262 562M262 606C241 606 228 620 228 640 228 661 242 675 262 675 282 675 296 661 296 640 296 620 282 606 262 606z" horiz-adv-x="525" unicode="&#xE5;"/><glyph d="M118 245l21 0C164 245 179 255 187 278l119 298 118-298C433 255 448 245 472 245l22 0C526 245 538 265 526 293l-166 385C351 700 336 710 311 710l-11 0C276 710 261 700 252 678l-167-385C73 265 86 245 118 245z" horiz-adv-x="619" unicode="&#x5e;"/><glyph d="M90 199l20 0C135 199 144 213 155 236 162 261 177 285 209 285 276 285 294 195 394 195 478 195 532 239 544 333 548 361 531 377 504 377l-20 0C459 377 450 363 440 339 432 315 417 290 384 290 318 290 301 381 200 381 118 381 65 339 51 251 46 217 62 199 90 199z" horiz-adv-x="593" unicode="&#x7e;"/><glyph d="M129 347C152 330 172 335 187 359l46 72 2 0 47-73C296 334 317 330 339 347l21 15C382 379 385 400 366 421l-55 66 0 2 86 23C424 518 433 536 425 562l-8 25C409 613 389 621 363 611l-81-32 5 88C290 695 275 710 248 710l-28 0C192 710 177 694 180 666l5-87-82 32C78 622 60 612 51 586l-8-25C35 535 46 517 73 511l83-22 0-2-55-68C83 399 86 378 108 362z" horiz-adv-x="469" unicode="&#x2a;"/><glyph d="M46 240C46 47 187-107 400-125 428-128 443-112 443-85l0 16C443-42 429-30 403-26 260-8 172 106 172 240 172 382 282 511 427 511 514 511 577 475 578 423l-84 0C357 423 279 335 279 240 279 144 359 54 494 54l235 0C756 54 770 69 770 96l0 8C770 131 756 145 729 145l-31 0 0 250C698 510 627 613 423 613 211 613 46 448 46 240M405 243C405 296 443 341 504 341l74 0 0-196-76 0C443 145 405 189 405 243z" horiz-adv-x="810" unicode="&#x40;"/><glyph d="M24 141C24 48 100-12 193-12 305-12 353 84 353 84l2 0C355 84 353 76 353 62l0-20C353 14 367 0 394 0l34 0C456 0 470 14 470 42l0 277C470 448 391 522 259 522 183 522 125 497 92 480 68 467 64 447 76 424l10-19C98 381 117 377 142 388 166 401 205 417 248 417 300 417 343 394 343 327l0-12-21 0C208 315 24 290 24 141M150 152C150 228 259 238 323 238l21 0 0-19C344 157 298 85 227 85 176 85 150 118 150 152M120 575l10 0C150 575 162 583 164 597 166 619 179 637 202 637 244 637 263 572 339 572 399 572 440 614 440 675 440 699 428 709 403 709l-10 0C372 709 358 700 357 686 355 663 344 647 322 647 280 647 260 712 185 712 125 712 84 667 84 613 84 588 97 575 120 575z" horiz-adv-x="525" unicode="&#xE3;"/><glyph d="M63 42C63 14 78 0 105 0l34 0C167 0 181 14 181 36l0 16C181 66 179 74 179 74l2 0C181 74 222-12 337-12 469-12 570 93 570 256 570 413 480 522 345 522 234 522 189 440 189 440l-2 0C187 440 190 458 190 483l0 185C190 695 176 710 148 710l-43 0C78 710 63 695 63 668M186 255C186 364 249 413 315 413 389 413 441 349 441 253 441 152 383 95 312 95 229 95 186 172 186 255z" horiz-adv-x="603" unicode="&#x62;"/><glyph d="M264-8C272-31 287-42 312-42l23 0C365-42 379-24 369 5l-228 707C133 735 118 746 93 746l-22 0C41 746 27 728 36 699z" horiz-adv-x="406" unicode="&#x5c;"/><glyph d="M71-120C71-147 86-161 113-161l25 0C165-161 180-147 180-120l0 874C180 782 165 796 138 796l-25 0C86 796 71 782 71 754z" horiz-adv-x="251" unicode="&#x7c;"/><glyph d="M109 71C109-73 219-99 262-99l13 0C302-99 317-84 317-57l0 15C317-15 302 0 275 0 255 0 217 8 217 84l0 117C217 304 135 327 135 327l0 2C135 329 217 356 217 456l0 105C217 638 255 646 275 646 302 646 317 660 317 687l0 15C317 730 302 744 275 744l-13 0C219 744 109 719 109 574l0-85C109 430 80 404 57 394 37 381 24 372 24 347l0-39C24 283 37 274 58 262 80 250 109 225 109 168z" horiz-adv-x="343" unicode="&#x7b;"/><glyph d="M26-42l0-15C26-84 41-99 68-99l13 0C124-99 234-73 234 71l0 97C234 225 263 250 285 262 306 274 319 283 319 308l0 39C319 372 306 381 286 394 263 404 234 430 234 489l0 85C234 719 124 744 81 744l-13 0C41 744 26 730 26 702l0-15C26 660 41 646 68 646 88 646 126 638 126 561l0-105C126 356 208 329 208 329l0-2C208 327 126 304 126 201l0-117C126 8 88 0 68 0 41 0 26-15 26-42z" horiz-adv-x="344" unicode="&#x7d;"/><glyph d="M72-53C72-81 87-95 114-95l114 0C255-95 270-81 270-53l0 8C270-18 255-3 228-3l-47 0 0 652 50 0C256 649 270 664 270 691l0 9C270 727 255 741 228 741l-114 0C87 741 72 727 72 700z" horiz-adv-x="303" unicode="&#x5b;"/><glyph d="M34-45l0-8C34-81 48-95 75-95l115 0C217-95 231-81 231-53l0 753C231 727 217 741 190 741l-115 0C48 741 34 727 34 700l0-9C34 664 48 649 75 649l48 0 0-652-48 0C48-3 34-18 34-45z" horiz-adv-x="303" unicode="&#x5d;"/><glyph d="M247 753C319 753 394 798 394 868 394 884 384 893 358 893l-19 0C314 893 307 878 303 865 296 833 273 822 247 822 219 822 197 833 190 865 187 879 179 893 154 893l-19 0C110 893 100 883 100 868 100 799 176 753 247 753z" horiz-adv-x="493" unicode="&#x2D8;"/><glyph d="M213 124C305 124 380 199 380 291 380 383 305 458 213 458 121 458 46 383 46 291 46 199 121 124 213 124z" horiz-adv-x="426" unicode="&#x2022;"/><glyph d="M31 255C31 107 139-12 308-12 396-12 458 24 489 47 509 61 512 81 500 103l-10 19C477 146 458 149 433 135 409 118 369 96 319 96 221 96 160 170 160 256 160 343 221 414 315 414 359 414 393 397 414 383 438 371 455 371 470 394l13 20C497 436 496 457 475 471 445 492 390 522 308 522 139 522 31 400 31 255z" horiz-adv-x="530" unicode="&#x63;"/><glyph d="M283 574l21 0C326 574 341 582 355 599l45 61C422 687 414 710 378 710l-36 0C320 710 305 702 293 681l-35-60C243 595 254 574 283 574M31 255C31 107 139-12 308-12 396-12 458 24 489 47 509 61 512 81 500 103l-10 19C477 146 458 149 433 135 409 118 369 96 319 96 221 96 160 170 160 256 160 343 221 414 315 414 359 414 393 397 414 383 438 371 455 371 470 394l13 20C497 436 496 457 475 471 445 492 390 522 308 522 139 522 31 400 31 255z" horiz-adv-x="530" unicode="&#x107;"/><glyph d="M216 757l62 0C301 757 316 765 329 784l40 59C388 871 380 893 351 893l-26 0C301 893 293 885 281 865l-33-53-2 0-34 53C201 885 192 893 169 893l-26 0C114 893 106 871 125 843l40-59C178 765 193 757 216 757z" horiz-adv-x="494" unicode="&#x2C7;"/><glyph d="M257 574l62 0C342 574 357 582 370 601l40 59C429 688 421 710 392 710l-26 0C342 710 334 702 322 682l-33-53-2 0-34 53C242 702 233 710 210 710l-26 0C155 710 147 688 166 660l40-59C219 582 234 574 257 574M31 255C31 107 139-12 308-12 396-12 458 24 489 47 509 61 512 81 500 103l-10 19C477 146 458 149 433 135 409 118 369 96 319 96 221 96 160 170 160 256 160 343 221 414 315 414 359 414 393 397 414 383 438 371 455 371 470 394l13 20C497 436 496 457 475 471 445 492 390 522 308 522 139 522 31 400 31 255z" horiz-adv-x="530" unicode="&#x10D;"/><glyph d="M248-53C243-72 249-83 263-84 289-87 308-94 308-113 308-133 292-142 271-142 262-142 255-139 246-139 235-139 225-152 225-174 225-205 260-208 282-208 336-208 390-186 390-120 390-73 358-49 317-44l7 33C404-7 461 25 490 47 510 61 513 81 501 103l-10 19C478 146 459 149 434 135 410 118 370 96 320 96 222 96 161 170 161 256 161 343 222 414 316 414 360 414 394 397 415 383 439 371 456 371 471 394l13 20C498 436 497 457 476 471 446 492 391 522 309 522 140 522 32 400 32 255 32 122 119 12 260-8z" horiz-adv-x="533" unicode="&#xE7;"/><glyph d="M184 574l26 0C233 574 242 583 253 603l34 52 2 0 33-52C334 583 342 574 366 574l26 0C421 574 429 596 410 625l-40 58C357 702 342 710 319 710l-62 0C234 710 219 702 206 683l-40-58C147 596 155 574 184 574M31 255C31 107 139-12 308-12 396-12 458 24 489 47 509 61 512 81 500 103l-10 19C477 146 458 149 433 135 409 118 369 96 319 96 221 96 160 170 160 256 160 343 221 414 315 414 359 414 393 397 414 383 438 371 455 371 470 394l13 20C497 436 496 457 475 471 445 492 390 522 308 522 139 522 31 400 31 255z" horiz-adv-x="530" unicode="&#x109;"/><glyph d="M31 255C31 107 139-12 308-12 396-12 458 24 489 47 509 61 512 81 500 103l-10 19C477 146 458 149 433 135 409 118 369 96 319 96 221 96 160 170 160 256 160 343 221 414 315 414 359 414 393 397 414 383 438 371 455 371 470 394l13 20C497 436 496 457 475 471 445 492 390 522 308 522 139 522 31 400 31 255M276 599l26 0C329 599 343 614 343 641l0 28C343 696 329 710 302 710l-26 0C249 710 235 696 235 669l0-28C235 614 249 599 276 599z" horiz-adv-x="530" unicode="&#x10B;"/><glyph d="M189-53C184-72 190-83 204-84 230-87 249-94 249-113 249-133 233-142 212-142 203-142 196-139 187-139 176-139 166-152 166-174 166-205 201-208 223-208 277-208 331-186 331-120 331-73 299-49 258-44l14 64-63 0z" horiz-adv-x="493" unicode="&#xB8;"/><glyph d="M253 29C253 2 266-12 293-12l7 0C327-12 340 2 340 29l0 45C417 81 484 143 512 196 524 221 516 240 490 251l-38 15C424 276 411 263 397 246 374 211 344 190 301 190 219 190 170 257 170 353 170 453 223 520 302 520 343 520 374 499 397 464 412 446 423 434 452 445l38 15C517 471 524 490 512 514 483 570 415 625 340 637l0 51C340 709 327 721 300 721l-7 0C266 721 253 707 253 679l0-42C127 615 42 499 42 355 42 211 127 95 253 74z" horiz-adv-x="563" unicode="&#xA2;"/><glyph d="M143 757l26 0C192 757 201 766 212 786l34 52 2 0 33-52C293 766 301 757 325 757l26 0C380 757 388 779 369 808l-40 58C316 885 301 893 278 893l-62 0C193 893 178 885 165 866l-40-58C106 779 114 757 143 757z" horiz-adv-x="494" unicode="&#x2C6;"/><glyph d="M101 383l43 0C172 383 186 397 186 424l0 44C186 495 172 510 144 510l-43 0C74 510 60 495 60 468l0-44C60 397 74 383 101 383M60 42C60 14 74 0 101 0l43 0C172 0 186 14 186 42l0 43C186 113 172 127 144 127l-43 0C74 127 60 113 60 85z" horiz-adv-x="245" unicode="&#x3a;"/><glyph d="M21-72C13-101 26-119 57-119l13 0C94-119 109-109 118-87l69 167C199 109 186 129 155 129l-38 0C93 129 77 118 70 94z" horiz-adv-x="244" unicode="&#x2c;"/><glyph d="M123-81C123-99 128-108 128-130 128-165 117-178 117-196 117-211 130-219 154-219l11 0C199-219 228-171 228-116 228-86 219-55 180-55l-20 0C137-55 123-61 123-81z" horiz-adv-x="335" unicode="&#xF6C3;"/><glyph d="M45 355C45 152 204-12 403-12 602-12 763 152 763 355 763 558 602 721 403 721 204 721 45 558 45 355M134 355C134 514 250 640 403 640 556 640 674 514 674 355 674 195 555 69 403 69 251 69 134 195 134 355M220 353C220 247 296 158 410 158 480 158 528 200 548 225 559 239 563 255 544 271l-14 12C515 295 500 292 486 277 475 263 453 241 412 241 348 241 312 290 312 351 312 417 351 465 412 465 448 465 469 445 481 432 494 416 515 410 530 423l15 13C556 445 562 461 549 480 529 508 479 548 410 548 297 548 220 459 220 353z" horiz-adv-x="808" unicode="&#xA9;"/><glyph d="M33 255C33 97 122-12 260-12 377-12 420 76 420 76l2 0C422 76 420 68 420 58l0-20C420 13 434 0 461 0l37 0C525 0 539 14 539 42l0 626C539 695 525 710 498 710l-44 0C427 710 413 695 413 668l0-190C413 462 415 449 415 449l-2 0C413 449 376 522 264 522 129 522 33 417 33 255M161 255C161 356 220 413 289 413 375 413 416 335 416 256 416 143 354 95 288 95 213 95 161 158 161 255z" horiz-adv-x="603" unicode="&#x64;"/><glyph d="M162-8C162-36 176-50 203-50l39 0C269-50 283-36 283-8l0 419 86 0C396 411 410 426 410 453l0 15C410 495 396 510 369 510l-86 0 0 158C283 695 269 710 242 710l-39 0C176 710 162 695 162 668l0-158-83 0C52 510 37 495 37 468l0-15C37 426 52 411 79 411l83 0z" horiz-adv-x="447" unicode="&#x2020;"/><glyph d="M168-8C168-36 183-50 210-50l38 0C275-50 290-36 290-8l0 171 85 0C402 163 416 177 416 204l0 15C416 247 402 261 375 261l-85 0 0 150 85 0C402 411 416 426 416 453l0 15C416 495 402 510 375 510l-85 0 0 158C290 695 275 710 248 710l-38 0C183 710 168 695 168 668l0-158-83 0C58 510 44 495 44 468l0-15C44 426 58 411 85 411l83 0 0-150-83 0C58 261 44 247 44 219l0-15C44 177 58 163 85 163l83 0z" horiz-adv-x="460" unicode="&#x2021;"/><glyph d="M597 683C597 665 602 656 602 634 602 599 591 586 591 568 591 553 604 545 628 545l11 0C673 545 702 593 702 648 702 678 693 709 654 709l-20 0C611 709 597 703 597 683M33 255C33 97 122-12 260-12 377-12 420 76 420 76l2 0C422 76 420 68 420 58l0-20C420 13 434 0 461 0l37 0C525 0 539 14 539 42l0 626C539 695 525 710 498 710l-44 0C427 710 413 695 413 668l0-190C413 462 415 449 415 449l-2 0C413 449 376 522 264 522 129 522 33 417 33 255M161 255C161 356 220 413 289 413 375 413 416 335 416 256 416 143 354 95 288 95 213 95 161 158 161 255z" horiz-adv-x="603" unicode="&#x10F;"/><glyph d="M33 255C33 97 122-12 260-12 377-12 419 75 419 75l2 0C421 75 420 66 420 57l0-19C420 13 434 0 461 0l37 0C525 0 539 14 539 42l0 517 45 0C602 559 611 570 611 594l0 6C611 624 597 635 570 635l-31 0 0 33C539 695 525 710 498 710l-44 0C427 710 413 695 413 668l0-33-87 0C299 635 284 624 284 600l0-6C284 570 299 559 326 559l87 0 0-79C413 463 414 451 414 451l-2 0C412 451 376 522 264 522 129 522 33 417 33 255M161 255C161 356 220 413 289 413 375 413 416 335 416 256 416 143 354 95 288 95 213 95 161 158 161 255z" horiz-adv-x="603" unicode="&#x111;"/><glyph d="M196 408C286 408 359 477 359 565 359 651 286 723 196 723 105 723 33 651 33 565 33 477 105 408 196 408M196 499C159 499 130 528 130 565 130 601 159 631 196 631 233 631 263 601 263 565 263 528 233 499 196 499z" horiz-adv-x="392" unicode="&#xB0;"/><glyph d="M331 777l15 0C373 777 387 791 387 819l0 33C387 879 373 893 346 893l-15 0C304 893 290 879 290 852l0-33C290 791 304 777 331 777M148 777l14 0C189 777 204 791 204 819l0 33C204 879 189 893 162 893l-14 0C120 893 106 879 106 852l0-33C106 791 120 777 148 777z" horiz-adv-x="493" unicode="&#xA8;"/><glyph d="M294 437l31 0C352 437 367 451 367 478l0 25C367 531 352 545 325 545l-31 0C267 545 252 531 252 503l0-25C252 451 267 437 294 437M91 236l438 0C556 236 570 251 570 278l0 15C570 320 556 335 529 335l-438 0C63 335 49 320 49 293l0-15C49 251 63 236 91 236M252 68C252 41 267 27 294 27l31 0C352 27 367 41 367 68l0 25C367 121 352 135 325 135l-31 0C267 135 252 121 252 93z" horiz-adv-x="619" unicode="&#xF7;"/><glyph d="M63 59C93 36 151 0 233-9l0-57C233-88 245-101 273-101l7 0C306-101 319-86 319-59l0 50C441 7 512 94 512 196 512 420 174 399 174 518 174 568 222 603 282 603 333 603 376 582 402 566 427 552 446 555 459 579l17 34C488 635 486 656 464 669 437 688 388 714 319 719l0 57C319 799 306 811 280 811l-7 0C245 811 233 797 233 770l0-53C122 699 45 619 45 516 45 301 383 313 383 193 383 135 333 107 279 107 217 107 166 136 136 157 113 172 94 170 78 148l-22-31C41 96 42 74 63 59z" horiz-adv-x="549" unicode="&#x24;"/><glyph d="M234 782l26 0C287 782 301 797 301 824l0 28C301 879 287 893 260 893l-26 0C207 893 193 879 193 852l0-28C193 797 207 782 234 782z" horiz-adv-x="494" unicode="&#x2D9;"/><glyph d="M63 42C63 14 77 0 104 0l44 0C175 0 189 14 189 42l0 426C189 495 175 510 148 510l-44 0C77 510 63 495 63 468z" horiz-adv-x="252" unicode="&#x131;"/><glyph d="M32 255C32 110 137-12 306-12 386-12 446 18 479 39 501 52 505 72 493 95l-12 20C468 138 450 141 425 129 401 114 362 96 315 96 238 96 170 144 162 236l311 0C498 236 517 257 517 279 517 419 436 522 291 522 138 522 32 412 32 255M165 313C177 381 223 426 288 426 346 426 389 384 391 313z" horiz-adv-x="546" unicode="&#x65;"/><glyph d="M283 574l21 0C326 574 341 582 355 599l45 61C422 687 414 710 378 710l-36 0C320 710 305 702 293 681l-35-60C243 595 254 574 283 574M32 255C32 110 137-12 306-12 386-12 446 18 479 39 501 52 505 72 493 95l-12 20C468 138 450 141 425 129 401 114 362 96 315 96 238 96 170 144 162 236l311 0C498 236 517 257 517 279 517 419 436 522 291 522 138 522 32 412 32 255M165 313C177 381 223 426 288 426 346 426 389 384 391 313z" horiz-adv-x="546" unicode="&#xE9;"/><glyph d="M32 255C32 110 137-12 306-12 386-12 446 18 479 39 501 52 505 72 493 95l-12 20C468 138 450 141 425 129 401 114 362 96 315 96 238 96 170 144 162 236l311 0C498 236 517 257 517 279 517 419 436 522 291 522 138 522 32 412 32 255M165 313C177 381 223 426 288 426 346 426 389 384 391 313M289 570C361 570 436 615 436 685 436 701 426 710 400 710l-19 0C356 710 349 695 345 682 338 650 315 639 289 639 261 639 239 650 232 682 229 696 221 710 196 710l-19 0C152 710 142 700 142 685 142 616 218 570 289 570z" horiz-adv-x="546" unicode="&#x115;"/><glyph d="M257 574l62 0C342 574 357 582 370 601l40 59C429 688 421 710 392 710l-26 0C342 710 334 702 322 682l-33-53-2 0-34 53C242 702 233 710 210 710l-26 0C155 710 147 688 166 660l40-59C219 582 234 574 257 574M32 255C32 110 137-12 306-12 386-12 446 18 479 39 501 52 505 72 493 95l-12 20C468 138 450 141 425 129 401 114 362 96 315 96 238 96 170 144 162 236l311 0C498 236 517 257 517 279 517 419 436 522 291 522 138 522 32 412 32 255M165 313C177 381 223 426 288 426 346 426 389 384 391 313z" horiz-adv-x="546" unicode="&#x11B;"/><glyph d="M184 574l26 0C233 574 242 583 253 603l34 52 2 0 33-52C334 583 342 574 366 574l26 0C421 574 429 596 410 625l-40 58C357 702 342 710 319 710l-62 0C234 710 219 702 206 683l-40-58C147 596 155 574 184 574M32 255C32 110 137-12 306-12 386-12 446 18 479 39 501 52 505 72 493 95l-12 20C468 138 450 141 425 129 401 114 362 96 315 96 238 96 170 144 162 236l311 0C498 236 517 257 517 279 517 419 436 522 291 522 138 522 32 412 32 255M165 313C177 381 223 426 288 426 346 426 389 384 391 313z" horiz-adv-x="546" unicode="&#xEA;"/><glyph d="M373 594l15 0C415 594 429 608 429 636l0 33C429 696 415 710 388 710l-15 0C346 710 332 696 332 669l0-33C332 608 346 594 373 594M190 594l14 0C231 594 246 608 246 636l0 33C246 696 231 710 204 710l-14 0C162 710 148 696 148 669l0-33C148 608 162 594 190 594M32 255C32 110 137-12 306-12 386-12 446 18 479 39 501 52 505 72 493 95l-12 20C468 138 450 141 425 129 401 114 362 96 315 96 238 96 170 144 162 236l311 0C498 236 517 257 517 279 517 419 436 522 291 522 138 522 32 412 32 255M165 313C177 381 223 426 288 426 346 426 389 384 391 313z" horiz-adv-x="546" unicode="&#xEB;"/><glyph d="M32 255C32 110 137-12 306-12 386-12 446 18 479 39 501 52 505 72 493 95l-12 20C468 138 450 141 425 129 401 114 362 96 315 96 238 96 170 144 162 236l311 0C498 236 517 257 517 279 517 419 436 522 291 522 138 522 32 412 32 255M165 313C177 381 223 426 288 426 346 426 389 384 391 313M276 599l26 0C329 599 343 614 343 641l0 28C343 696 329 710 302 710l-26 0C249 710 235 696 235 669l0-28C235 614 249 599 276 599z" horiz-adv-x="546" unicode="&#x117;"/><glyph d="M32 255C32 110 137-12 306-12 386-12 446 18 479 39 501 52 505 72 493 95l-12 20C468 138 450 141 425 129 401 114 362 96 315 96 238 96 170 144 162 236l311 0C498 236 517 257 517 279 517 419 436 522 291 522 138 522 32 412 32 255M165 313C177 381 223 426 288 426 346 426 389 384 391 313M274 574l26 0C329 574 333 597 320 620l-35 61C273 702 258 710 236 710l-37 0C164 710 156 687 178 660l45-61C237 582 252 574 274 574z" horiz-adv-x="546" unicode="&#xE8;"/><glyph d="M48 201C48 85 148-12 302-12 461-12 554 91 554 198 554 269 513 318 456 352 472 368 536 439 536 530 536 647 437 722 303 722 149 722 76 625 76 529 76 465 109 421 157 387 134 371 48 306 48 201M364 397C279 433 202 458 202 527 202 573 236 610 304 610 369 610 411 576 411 515 411 457 375 413 364 397M177 215C177 279 225 318 244 335 347 289 422 268 422 200 422 141 367 100 303 100 234 100 177 146 177 215z" horiz-adv-x="605" unicode="&#x38;"/><glyph d="M197-166C280-166 357-117 357-37 357 12 330 41 295 62 304 73 347 119 347 170 347 251 272 293 198 293 124 293 52 252 52 171 52 130 72 103 100 82 79 66 32 27 32-29 32-120 115-166 197-166M229 93C185 113 143 130 143 167 143 198 170 211 198 211 227 211 258 195 258 164 258 130 238 103 229 93M196-85C160-85 124-63 124-24 124 9 147 34 161 47 211 23 262 7 262-32 262-65 228-85 196-85z" horiz-adv-x="392" unicode="&#x2088;"/><glyph d="M197 413C280 413 357 462 357 542 357 591 330 620 295 641 304 652 347 698 347 749 347 830 272 872 198 872 124 872 52 831 52 750 52 709 72 682 100 661 79 645 32 606 32 550 32 459 115 413 197 413M229 672C185 692 143 709 143 746 143 777 170 790 198 790 227 790 258 774 258 743 258 709 238 682 229 672M196 494C160 494 124 516 124 555 124 588 147 613 161 626 211 602 262 586 262 547 262 514 228 494 196 494z" horiz-adv-x="392" unicode="&#x2078;"/><glyph d="M625 42C625 14 639 0 666 0l41 0C734 0 748 14 748 42l0 45C748 114 734 128 707 128l-41 0C639 128 625 114 625 87M340 42C340 14 354 0 381 0l41 0C449 0 464 14 464 42l0 45C464 114 449 128 422 128l-41 0C354 128 340 114 340 87M55 42C55 14 69 0 97 0l40 0C164 0 179 14 179 42l0 45C179 114 164 128 137 128l-40 0C69 128 55 114 55 87z" horiz-adv-x="803" unicode="&#x2026;"/><glyph d="M32 255C32 110 137-12 306-12 386-12 446 18 479 39 501 52 505 72 493 95l-12 20C468 138 450 141 425 129 401 114 362 96 315 96 238 96 170 144 162 236l311 0C498 236 517 257 517 279 517 419 436 522 291 522 138 522 32 412 32 255M165 313C177 381 223 426 288 426 346 426 389 384 391 313M199 600l179 0C405 600 420 613 420 640l0 7C420 675 405 687 378 687l-179 0C172 687 158 675 158 647l0-7C158 613 172 600 199 600z" horiz-adv-x="546" unicode="&#x113;"/><glyph d="M100 236l671 0C798 236 812 251 812 278l0 15C812 320 798 335 771 335l-671 0C73 335 59 320 59 293l0-15C59 251 73 236 100 236z" horiz-adv-x="871" unicode="&#x2014;"/><glyph d="M100 236l471 0C598 236 612 251 612 278l0 15C612 320 598 335 571 335l-471 0C73 335 59 320 59 293l0-15C59 251 73 236 100 236z" horiz-adv-x="671" unicode="&#x2013;"/><glyph d="M63 42C63 14 77 0 104 0l44 0C175 0 189 14 189 42l0 197C189 331 246 406 336 406 400 406 416 364 416 302l0-307C416-81 369-95 333-98 306-101 292-112 292-139l0-26C292-193 306-207 333-207l15 0C398-207 543-179 543-13l0 341C543 463 478 522 365 522 262 522 206 457 184 414l-2 0C182 414 184 426 184 437l0 31C184 495 170 510 143 510l-39 0C77 510 63 495 63 468z" horiz-adv-x="602" unicode="&#x14B;"/><glyph d="M32 255C32 110 137-12 306-12 319-12 327-10 339-8 309-35 282-68 282-112 282-167 349-199 391-203 410-204 427-196 430-175l3 21C436-134 431-121 417-115 402-109 383-101 383-80 383-38 451 9 481 37 499 55 504 72 492 95l-10 19C469 138 450 141 425 129 401 114 362 96 315 96 238 96 170 144 162 236l311 0C500 236 516 256 517 276 517 416 436 522 291 522 138 522 32 412 32 255M165 313C177 379 223 424 288 424 344 424 387 382 389 313z" horiz-adv-x="548" unicode="&#x119;"/><glyph d="M107 339l405 0C539 339 554 354 554 381l0 15C554 423 539 437 512 437l-405 0C80 437 66 423 66 396l0-15C66 354 80 339 107 339M107 134l405 0C539 134 554 148 554 175l0 15C554 218 539 232 512 232l-405 0C80 232 66 218 66 190l0-15C66 148 80 134 107 134z" horiz-adv-x="619" unicode="&#x3d;"/><glyph d="M33 237C33 110 121-12 277-12 466-12 537 142 537 278 537 417 482 521 400 593l64 29C485 631 496 643 487 661l-7 15C473 692 463 698 435 687l-101-44C280 676 219 700 156 717 131 724 113 714 104 689l-7-22C88 640 98 623 124 614 150 607 175 598 198 586l-86-38C90 539 79 527 88 506l5-12C102 473 112 470 140 482l138 60C321 514 358 475 377 430l-2 0C375 430 338 465 268 465 118 465 33 355 33 237M161 234C161 301 203 366 291 366 364 366 409 319 409 255 409 180 373 95 280 95 199 95 161 164 161 234z" horiz-adv-x="579" unicode="&#xF0;"/><glyph d="M120 205l29 0C176 205 191 219 191 246l8 421C200 695 185 710 158 710l-47 0C84 710 70 695 70 667l8-421C79 219 94 205 120 205M74 42C74 14 88 0 115 0l40 0C182 0 197 14 197 42l0 35C197 104 182 119 155 119l-40 0C88 119 74 104 74 77z" horiz-adv-x="270" unicode="&#x21;"/><glyph d="M145 304l-29 0C89 304 74 290 74 263l-8-421C65-186 80-201 107-201l47 0C181-201 195-186 195-158l-8 421C186 290 171 304 145 304M191 467C191 495 177 509 150 509l-40 0C83 509 68 495 68 467l0-35C68 405 83 390 110 390l40 0C177 390 191 405 191 432z" horiz-adv-x="262" unicode="&#xA1;"/><glyph d="M90 42C90 14 104 0 131 0l44 0C202 0 217 14 217 42l0 360 68 0C312 402 326 416 326 444l0 17C326 488 312 503 285 503l-68 0 0 19C217 596 267 603 298 605 326 607 341 619 341 646l0 26C341 700 327 714 300 714l-15 0C233 714 90 689 90 527l0-24-25 0C38 503 24 488 24 461l0-17C24 416 38 402 65 402l25 0z" horiz-adv-x="338" unicode="&#x66;"/><glyph d="M90 42C90 14 105 0 132 0l43 0C203 0 217 14 217 42l0 367 211 0 0-367C428 14 443 0 470 0l44 0C541 0 555 14 555 42l0 367 74 0C652 409 665 423 665 451l0 17C665 495 651 510 623 510l-68 0 0 12C555 596 606 603 637 605 665 607 680 619 680 646l0 26C680 700 665 714 638 714l-14 0C571 714 428 689 428 527l0-17-211 0 0 12C217 596 267 603 299 605 327 607 342 619 342 646l0 26C342 700 327 714 300 714l-14 0C233 714 90 689 90 527l0-17-24 0C38 510 24 495 24 468l0-17C24 423 38 409 66 409l24 0z" horiz-adv-x="676" unicode="&#xFB00;"/><glyph d="M90 42C90 14 104 0 131 0l44 0C202 0 217 14 217 42l0 367 211 0 0-367C428 14 443 0 470 0l43 0C540 0 555 14 555 42l0 367 184 0 0-367C739 14 754 0 781 0l43 0C851 0 866 14 866 42l0 426C866 495 851 510 824 510l-269 0 0 12C555 596 605 603 636 605 665 607 679 619 679 646l0 26C679 700 665 714 638 714l-14 0C571 714 428 689 428 527l0-17-211 0 0 12C217 596 267 603 298 605 326 607 341 619 341 646l0 26C341 700 327 714 300 714l-15 0C233 714 90 689 90 527l-3-17-22 0C38 510 24 495 24 468l0-17C24 423 38 409 65 409l22 0M739 638C739 611 753 597 781 597l43 0C852 597 866 611 866 638l0 30C866 695 852 710 824 710l-43 0C753 710 739 695 739 668z" horiz-adv-x="929" unicode="&#xFB03;"/><glyph d="M90 42C90 14 105 0 132 0l43 0C203 0 217 14 217 42l0 367 211 0 0-367C428 14 443 0 470 0l44 0C541 0 555 14 555 42l0 367 74 0C652 409 665 423 665 451l0 17C665 495 651 510 623 510l-68 0 0 12C555 596 606 603 637 605 665 607 680 619 680 646l0 26C680 700 665 714 638 714l-14 0C571 714 428 689 428 527l0-17-211 0 0 12C217 596 267 603 299 605 327 607 342 619 342 646l0 26C342 700 327 714 300 714l-14 0C233 714 90 689 90 527l-3-17-21 0C38 510 24 495 24 468l0-17C24 423 38 409 66 409l21 0M739 159C739 13 826-5 893-5 924-5 936 12 936 38l0 34C936 95 923 106 905 108 886 110 865 119 865 169l0 499C865 695 851 710 824 710l-44 0C753 710 739 695 739 668z" horiz-adv-x="956" unicode="&#xFB04;"/><glyph d="M90 42C90 14 104 0 131 0l44 0C202 0 217 14 217 42l0 367 184 0 0-367C401 14 415 0 442 0l44 0C513 0 528 14 528 42l0 426C528 495 513 510 486 510l-269 0 0 12C217 596 267 603 298 605 326 607 341 619 341 646l0 26C341 700 327 714 300 714l-15 0C233 714 90 689 90 527l0-17-25 0C38 510 24 495 24 468l0-17C24 423 38 409 65 409l25 0M442 597l44 0C513 597 528 611 528 638l0 30C528 695 513 710 486 710l-44 0C415 710 401 695 401 668l0-30C401 611 415 597 442 597z" horiz-adv-x="590" unicode="&#xFB01;"/><glyph d="M63 59C97 31 163-12 262-12 409-12 518 92 518 232 518 360 425 465 268 465 225 465 192 449 192 449l-2 0C190 449 194 463 195 482l11 117 220 0C454 599 468 613 468 640l0 28C468 695 454 710 426 710l-292 0C108 710 93 696 91 670l-26-283C63 362 73 346 96 337l9-3C124 327 141 329 161 336 178 343 207 354 243 354 324 354 385 305 385 231 385 156 321 110 252 110 197 110 157 136 134 154 111 170 92 169 77 146l-20-30C42 96 43 74 63 59z" horiz-adv-x="560" unicode="&#x35;"/><glyph d="M169-167C272-167 335-92 335-13 335 66 273 131 181 131 150 131 130 123 130 123l-2 1C128 124 131 133 132 149l5 51 126 0C290 200 305 213 305 239l0 4C305 269 290 282 263 282l-163 0C73 282 58 268 56 242l-15-148C39 70 47 55 64 48 80 41 97 44 117 48 127 52 142 57 160 57 204 57 239 28 239-12 239-53 202-80 162-80 134-80 113-68 99-57 77-45 60-43 45-65l-3-4C27-91 27-111 48-126 73-143 113-167 169-167z" horiz-adv-x="362" unicode="&#x2085;"/><glyph d="M169 413C272 413 335 488 335 567 335 646 273 711 181 711 150 711 130 703 130 703l-2 1C128 704 131 713 132 729l5 51 126 0C290 780 305 793 305 819l0 4C305 849 290 862 263 862l-163 0C73 862 58 848 56 822l-15-148C39 650 47 635 64 628 80 621 97 624 117 628 127 632 142 637 160 637 204 637 239 608 239 568 239 527 202 500 162 500 134 500 113 512 99 523 77 535 60 537 45 515l-3-4C27 489 27 469 48 454 73 437 113 413 169 413z" horiz-adv-x="362" unicode="&#x2075;"/><glyph d="M400 159C400 13 487-5 555-5 585-5 597 12 597 38l0 34C597 95 584 106 566 108 547 110 526 119 526 169l0 499C526 695 512 710 485 710l-44 0C414 710 400 695 400 668M90 42C90 14 104 0 131 0l44 0C202 0 217 14 217 42l0 360 68 0C312 402 326 416 326 444l0 17C326 488 312 503 285 503l-68 0 0 19C217 596 267 603 298 605 326 607 341 619 341 646l0 26C341 700 327 714 300 714l-15 0C233 714 90 689 90 527l0-24-25 0C38 503 24 488 24 461l0-17C24 416 38 402 65 402l25 0z" horiz-adv-x="618" unicode="&#xFB02;"/><glyph d="M-8-7C-32-4-46-18-46-46l0-25C-46-97-33-113-7-115 3-116 16-117 29-117 100-117 237-96 252 72l23 262 77 0C378 334 392 348 392 376l0 17C392 420 378 435 351 435l-67 0 8 85C300 601 362 613 399 613 412 613 431 611 446 609 465 607 477 622 477 650l0 25C477 701 464 716 438 719 424 720 407 722 391 722 319 722 182 700 166 532l-9-97-41 0C88 435 74 420 74 393l0-17C74 348 88 334 116 334l32 0-21-250C119 3 57-8 21-8 10-8 1-7-8-7z" horiz-adv-x="403" unicode="&#x192;"/><glyph d="M61 183l291 0 0-141C352 14 366 0 393 0l44 0C465 0 479 14 479 42l0 141 58 0C559 183 571 197 571 224l0 25C571 276 556 290 529 290l-50 0 0 378C479 695 465 710 437 710l-78 0C336 710 321 702 309 683l-274-398C24 269 20 254 20 234l0-10C20 197 34 183 61 183M156 290l0 2 164 227C339 546 355 584 355 584l2 0C357 584 352 545 352 510l0-220z" horiz-adv-x="607" unicode="&#x34;"/><glyph d="M259-157l10 0C296-157 311-143 311-115l0 57 26 0C362-58 372-44 372-19l0 5C372 10 362 24 337 24l-26 0 0 216C311 267 296 282 269 282l-34 0C213 282 198 273 185 255l-156-226C18 12 14 5 14-15l0-11C14-47 28-58 55-58l162 0 0-57C217-143 232-157 259-157M110 24l0 2 83 116C207 162 219 189 219 189l2 0C221 189 217 160 217 134l0-110z" horiz-adv-x="393" unicode="&#x2084;"/><glyph d="M259 423l10 0C296 423 311 437 311 465l0 57 26 0C362 522 372 536 372 561l0 5C372 590 362 604 337 604l-26 0 0 216C311 847 296 862 269 862l-34 0C213 862 198 853 185 835l-156-226C18 592 14 585 14 565l0-11C14 533 28 522 55 522l162 0 0-57C217 437 232 423 259 423M110 604l0 2 83 116C207 742 219 769 219 769l2 0C221 769 217 740 217 714l0-110z" horiz-adv-x="393" unicode="&#x2074;"/><glyph d="M-18 31l299 630C294 690 286 710 259 710l-14 0C222 710 207 700 197 679l-299-630C-116 20-107 0-80 0l14 0C-43 0-28 10-18 31z" horiz-adv-x="179" unicode="&#x2044;"/><glyph d="M105-106l-8-23C86-155 93-172 119-183 154-198 211-210 268-210 394-210 532-144 532 31l0 437C532 495 518 510 491 510l-34 0C430 510 416 495 416 476l0-19C416 449 417 444 417 444l-2 0C415 444 383 522 264 522 112 522 34 408 34 269 34 128 116 10 265 10 333 10 377 38 405 86l2 0C407 86 405 72 405 60l0-38C405-69 339-102 261-102 214-102 182-92 158-83 131-74 116-81 105-106M290 117C208 117 162 182 162 274 162 358 205 414 284 414 350 414 408 383 408 266 408 152 350 117 290 117z" horiz-adv-x="595" unicode="&#x67;"/><glyph d="M105-106l-8-23C86-155 93-172 119-183 154-198 211-210 268-210 394-210 532-144 532 31l0 437C532 495 518 510 491 510l-34 0C430 510 416 495 416 476l0-19C416 449 417 444 417 444l-2 0C415 444 383 522 264 522 112 522 34 408 34 269 34 128 116 10 265 10 333 10 377 38 405 86l2 0C407 86 405 72 405 60l0-38C405-69 339-102 261-102 214-102 182-92 158-83 131-74 116-81 105-106M290 117C208 117 162 182 162 274 162 358 205 414 284 414 350 414 408 383 408 266 408 152 350 117 290 117M290 570C362 570 437 615 437 685 437 701 427 710 401 710l-19 0C357 710 350 695 346 682 339 650 316 639 290 639 262 639 240 650 233 682 230 696 222 710 197 710l-19 0C153 710 143 700 143 685 143 616 219 570 290 570z" horiz-adv-x="595" unicode="&#x11F;"/><glyph d="M185 574l26 0C234 574 243 583 254 603l34 52 2 0 33-52C335 583 343 574 367 574l26 0C422 574 430 596 411 625l-40 58C358 702 343 710 320 710l-62 0C235 710 220 702 207 683l-40-58C148 596 156 574 185 574M105-106l-8-23C86-155 93-172 119-183 154-198 211-210 268-210 394-210 532-144 532 31l0 437C532 495 518 510 491 510l-34 0C430 510 416 495 416 476l0-19C416 449 417 444 417 444l-2 0C415 444 383 522 264 522 112 522 34 408 34 269 34 128 116 10 265 10 333 10 377 38 405 86l2 0C407 86 405 72 405 60l0-38C405-69 339-102 261-102 214-102 182-92 158-83 131-74 116-81 105-106M290 117C208 117 162 182 162 274 162 358 205 414 284 414 350 414 408 383 408 266 408 152 350 117 290 117z" horiz-adv-x="595" unicode="&#x11D;"/><glyph d="M340 593C340 611 335 620 335 642 335 677 346 690 346 708 346 723 333 731 309 731l-11 0C264 731 235 683 235 628 235 598 244 567 283 567l20 0C326 567 340 573 340 593M105-106l-8-23C86-155 93-172 119-183 154-198 211-210 268-210 394-210 532-144 532 31l0 437C532 495 518 510 491 510l-34 0C430 510 416 495 416 476l0-19C416 449 417 444 417 444l-2 0C415 444 383 522 264 522 112 522 34 408 34 269 34 128 116 10 265 10 333 10 377 38 405 86l2 0C407 86 405 72 405 60l0-38C405-69 339-102 261-102 214-102 182-92 158-83 131-74 116-81 105-106M290 117C208 117 162 182 162 274 162 358 205 414 284 414 350 414 408 383 408 266 408 152 350 117 290 117z" horiz-adv-x="595" unicode="&#x123;"/><glyph d="M105-106l-8-23C86-155 93-172 119-183 154-198 211-210 268-210 394-210 532-144 532 31l0 437C532 495 518 510 491 510l-34 0C430 510 416 495 416 476l0-19C416 449 417 444 417 444l-2 0C415 444 383 522 264 522 112 522 34 408 34 269 34 128 116 10 265 10 333 10 377 38 405 86l2 0C407 86 405 72 405 60l0-38C405-69 339-102 261-102 214-102 182-92 158-83 131-74 116-81 105-106M290 117C208 117 162 182 162 274 162 358 205 414 284 414 350 414 408 383 408 266 408 152 350 117 290 117M277 599l26 0C330 599 344 614 344 641l0 28C344 696 330 710 303 710l-26 0C250 710 236 696 236 669l0-28C236 614 250 599 277 599z" horiz-adv-x="595" unicode="&#x121;"/><glyph d="M63 42C63 14 78 0 105 0l43 0C176 0 190 14 190 42l0 478C190 586 239 614 291 614 344 614 373 581 373 546 373 481 284 448 284 369 284 260 445 228 445 161 445 117 411 101 375 101 342 101 314 108 296 114 272 120 258 109 258 79l0-25C258 30 268 13 292 8 312 2 346-7 393-7 487-7 573 46 573 154 573 281 412 314 412 372 412 430 501 457 501 548 501 648 410 722 295 722 178 722 63 655 63 529z" horiz-adv-x="597" unicode="&#xDF;"/><glyph d="M279 757l26 0C334 757 338 780 325 803l-35 61C278 885 263 893 241 893l-37 0C169 893 161 870 183 843l45-61C242 765 257 757 279 757z" horiz-adv-x="493" unicode="&#x60;"/><glyph d="M83 84C83 53 102 40 131 53l401 178C554 240 564 255 564 280l0 12C564 316 554 331 532 341l-401 178C102 532 83 519 83 488l0-23C83 441 93 426 115 417l314-130 0-2-314-130C93 146 83 131 83 107z" horiz-adv-x="619" unicode="&#x26;&#x67;&#x74;&#x3b;"/><glyph d="M82 84C82 53 102 40 131 53l400 178C553 240 563 255 563 280l0 12C563 316 553 331 531 341l-400 178C102 532 82 519 82 488l0-23C82 441 93 426 114 417l315-130 0-2-315-130C93 146 82 131 82 107M124-85C97-85 82-100 82-127l0-15C82-169 97-183 124-183l396 0C547-183 561-169 561-142l0 15C561-100 547-85 520-85z" horiz-adv-x="619" unicode="&#x2265;"/><glyph d="M274 253l121-152C409 85 424 77 446 77l29 0C508 77 516 100 494 128l-123 154 123 155C517 465 506 488 470 488l-24 0C424 488 409 480 395 464l-121-153C258 292 258 272 274 253M170 101C184 85 199 77 221 77l29 0C283 77 292 100 270 128l-123 154 123 155C292 465 281 488 246 488l-25 0C199 488 184 480 170 464l-121-153C33 292 33 272 49 253z" horiz-adv-x="554" unicode="&#xAB;"/><glyph d="M284 128C262 100 272 77 308 77l25 0C355 77 370 85 384 101l120 152C520 272 520 292 504 311l-120 153C370 480 355 488 333 488l-29 0C271 488 261 465 284 437l123-155M83 77l25 0C130 77 145 85 159 101l121 152C296 272 296 292 280 311l-121 153C145 480 130 488 108 488l-29 0C46 488 37 465 59 437l123-155-123-154C37 100 48 77 83 77z" horiz-adv-x="554" unicode="&#xBB;"/><glyph d="M170 101C184 85 199 77 221 77l29 0C283 77 292 100 270 128l-123 154 123 155C292 465 281 488 246 488l-25 0C199 488 184 480 170 464l-121-153C33 292 33 272 49 253z" horiz-adv-x="329" unicode="&#x2039;"/><glyph d="M83 77l25 0C130 77 145 85 159 101l121 152C296 272 296 292 280 311l-121 153C145 480 130 488 108 488l-29 0C46 488 37 465 59 437l123-155-123-154C37 100 48 77 83 77z" horiz-adv-x="329" unicode="&#x203A;"/><glyph d="M63 42C63 14 78 0 105 0l43 0C176 0 190 14 190 42l0 195C190 334 248 406 337 406 401 406 417 364 417 302l0-260C417 14 431 0 459 0l43 0C529 0 544 14 544 42l0 286C544 463 479 522 366 522 278 522 214 468 189 419l-2 0C187 419 190 437 190 462l0 206C190 695 176 710 148 710l-43 0C78 710 63 695 63 668z" horiz-adv-x="599" unicode="&#x68;"/><glyph d="M63 42C63 14 78 0 105 0l43 0C176 0 190 14 190 42l0 197C190 329 245 406 337 406 401 406 417 364 417 302l0-260C417 14 431 0 459 0l43 0C529 0 544 14 544 42l0 286C544 463 479 522 366 522 278 522 215 470 190 421l-2 0C188 421 190 439 190 464l0 95 92 0C309 559 324 570 324 594l0 6C324 624 309 635 282 635l-92 0 0 47C190 700 176 710 148 710l-43 0C78 710 63 695 63 668l0-33-24 0C12 635-3 624-3 600l0-6C-3 570 12 559 39 559l24 0z" horiz-adv-x="599" unicode="&#x127;"/><glyph d="M24 757l26 0C73 757 82 766 93 786l34 52 2 0 33-52C174 766 182 757 206 757l26 0C261 757 269 779 250 808l-40 58C197 885 182 893 159 893l-62 0C74 893 59 885 46 866l-40-58C-13 779-5 757 24 757M63 42C63 14 78 0 105 0l43 0C176 0 190 14 190 42l0 195C190 334 248 406 337 406 401 406 417 364 417 302l0-260C417 14 431 0 459 0l43 0C529 0 544 14 544 42l0 286C544 463 479 522 366 522 278 522 214 468 189 419l-2 0C187 419 190 437 190 462l0 206C190 695 176 710 148 710l-43 0C78 710 63 695 63 668z" horiz-adv-x="599" unicode="&#x125;"/><glyph d="M287 757l13 0C322 757 337 765 351 782l45 61C417 870 410 893 374 893l-31 0C321 893 306 885 294 864l-33-57C246 778 254 757 287 757M112 757l19 0C153 757 168 766 180 787l31 57C227 873 217 893 185 893l-21 0C141 893 125 884 115 863l-31-57C70 778 79 757 112 757z" horiz-adv-x="493" unicode="&#x2DD;"/><glyph d="M100 230l217 0C344 230 359 244 359 272l0 28C359 327 344 341 317 341l-217 0C73 341 58 327 58 300l0-28C58 244 73 230 100 230z" horiz-adv-x="417" unicode="&#x2d;"/><glyph d="M104 597l44 0C175 597 190 611 190 638l0 30C190 695 175 710 148 710l-44 0C77 710 63 695 63 668l0-30C63 611 77 597 104 597M63 42C63 14 77 0 104 0l44 0C175 0 189 14 189 42l0 426C189 495 175 510 148 510l-44 0C77 510 63 495 63 468z" horiz-adv-x="252" unicode="&#x69;"/><glyph d="M122 574l21 0C165 574 180 582 194 599l45 61C261 687 253 710 217 710l-36 0C159 710 144 702 132 681l-35-60C82 595 93 574 122 574M63 42C63 14 77 0 104 0l44 0C175 0 189 14 189 42l0 426C189 495 175 510 148 510l-44 0C77 510 63 495 63 468z" horiz-adv-x="252" unicode="&#xED;"/><glyph d="M63 42C63 14 77 0 104 0l44 0C175 0 189 14 189 42l0 426C189 495 175 510 148 510l-44 0C77 510 63 495 63 468M127 570C199 570 274 615 274 685 274 701 264 710 238 710l-19 0C194 710 187 695 183 682 176 650 153 639 127 639 99 639 77 650 70 682 67 696 59 710 34 710l-19 0C-10 710-20 700-20 685-20 616 56 570 127 570z" horiz-adv-x="252" unicode="&#x12D;"/><glyph d="M23 574l26 0C72 574 81 583 92 603l34 52 2 0 33-52C173 583 181 574 205 574l26 0C260 574 268 596 249 625l-40 58C196 702 181 710 158 710l-62 0C73 710 58 702 45 683l-40-58C-14 596-6 574 23 574M63 42C63 14 77 0 104 0l44 0C175 0 189 14 189 42l0 426C189 495 175 510 148 510l-44 0C77 510 63 495 63 468z" horiz-adv-x="252" unicode="&#xEE;"/><glyph d="M211 594l15 0C253 594 267 608 267 636l0 33C267 696 253 710 226 710l-15 0C184 710 170 696 170 669l0-33C170 608 184 594 211 594M28 594l14 0C69 594 84 608 84 636l0 33C84 696 69 710 42 710l-14 0C0 710-14 696-14 669l0-33C-14 608 0 594 28 594M63 42C63 14 77 0 104 0l44 0C175 0 189 14 189 42l0 426C189 495 175 510 148 510l-44 0C77 510 63 495 63 468z" horiz-adv-x="252" unicode="&#xEF;"/><glyph d="M63 42C63 14 77 0 104 0l44 0C175 0 189 14 189 42l0 426C189 495 175 510 148 510l-44 0C77 510 63 495 63 468M110 574l26 0C165 574 169 597 156 620l-35 61C109 702 94 710 72 710l-37 0C0 710-8 687 14 660l45-61C73 582 88 574 110 574z" horiz-adv-x="252" unicode="&#xEC;"/><glyph d="M104 597l44 0C175 597 190 611 190 638l0 30C190 695 175 710 148 710l-44 0C77 710 63 695 63 668l0-30C63 611 77 597 104 597M63 42C63 14 77 0 104 0l44 0C175 0 189 14 189 42l0 426C189 495 175 510 148 510l-44 0C77 510 63 495 63 468M375 597l44 0C446 597 460 611 460 638l0 30C460 695 446 710 419 710l-44 0C348 710 333 695 333 668l0-30C333 611 348 597 375 597M333-5C333-83 285-94 250-98 229-101 209-107 209-139l0-26C209-193 223-207 250-207l15 0C315-207 460-179 460-13l0 481C460 495 446 510 418 510l-43 0C348 510 333 495 333 468z" horiz-adv-x="523" unicode="&#x133;"/><glyph d="M63 42C63 14 77 0 104 0l44 0C175 0 189 14 189 42l0 426C189 495 175 510 148 510l-44 0C77 510 63 495 63 468M37 600l179 0C243 600 258 613 258 640l0 7C258 675 243 687 216 687l-179 0C10 687-4 675-4 647l0-7C-4 613 10 600 37 600z" horiz-adv-x="252" unicode="&#x12B;"/><glyph d="M245 157C350 157 435 244 435 349 435 455 350 540 245 540 139 540 53 455 53 349 53 244 139 157 245 157z" horiz-adv-x="488" unicode="&#x221E;"/></font>
</svg>
